<?xml version="1.0" standalone="no"?>
<!DOCTYPE svg PUBLIC "-//W3C//DTD SVG 1.1//EN" "http://www.w3.org/Graphics/SVG/1.1/DTD/svg11.dtd" >
<svg>
<metadata>
Created by FontForge 20090622 at Mon Aug 10 17:00:50 2015
 By deploy user
Digitized data copyright (C) 1992-1997 The Monotype Corporation. All rights reserved. Century&#226;&#132;&#162; is a trademark of The Monotype Corporation which may be registered in certain jurisdictions.
</metadata>
<defs>
<font id="Century" horiz-adv-x="1451" >
  <font-face 
    font-family="Century"
    font-weight="400"
    font-stretch="normal"
    units-per-em="2048"
    panose-1="2 4 6 4 5 5 5 2 3 4"
    ascent="1638"
    descent="-410"
    x-height="937"
    cap-height="1479"
    bbox="-338 -628 2551 2460"
    underline-thickness="102"
    underline-position="-154"
    unicode-range="U+0020-U+F108"
  />
<missing-glyph horiz-adv-x="1536" 
d="M256 0v1280h1024v-1280h-1024zM288 32h960v1216h-960v-1216z" />
    <glyph glyph-name=".notdef" horiz-adv-x="1536" 
d="M256 0v1280h1024v-1280h-1024zM288 32h960v1216h-960v-1216z" />
    <glyph glyph-name=".null" horiz-adv-x="0" 
 />
    <glyph glyph-name="nonmarkingreturn" horiz-adv-x="569" 
 />
    <glyph glyph-name="space" unicode=" " horiz-adv-x="569" 
 />
    <glyph glyph-name="exclam" unicode="!" horiz-adv-x="606" 
d="M334 434h-52q-1 179 -10 268q-15 147 -51 347q-39 224 -39 293q0 87 35 130.5t92 43.5q59 0 93 -41.5t34 -129.5q0 -75 -40 -296q-36 -194 -48 -321.5t-14 -293.5zM309 216q51 0 86.5 -36t35.5 -87q0 -49 -36 -85t-86 -36t-85.5 35t-35.5 86q0 52 35 87.5t86 35.5z" />
    <glyph glyph-name="quotedbl" unicode="&#x22;" horiz-adv-x="797" 
d="M189 820l-55 297q-23 121 -23 170q0 65 26.5 95.5t72.5 30.5q44 0 74 -30.5t30 -80.5q0 -43 -26 -185l-55 -297h-44zM561 820l-56 297q-24 129 -24 175q0 62 28 91.5t75 29.5q45 0 73.5 -30t28.5 -81q0 -85 -20 -185l-57 -297h-48z" />
    <glyph glyph-name="numbersign" unicode="#" horiz-adv-x="1139" 
d="M-34 1059h336l90 420h126l-90 -420h361l91 420h127l-89 -420h203v-128h-228l-80 -383h308v-130h-332l-89 -418h-128l89 418h-366l-85 -418h-129l88 418h-203v130h230l80 383h-310v128zM402 931l-80 -383h364l80 383h-364z" />
    <glyph glyph-name="dollar" unicode="$" horiz-adv-x="1139" 
d="M540 1508h84v-97q65 0 162.5 -33t151.5 -102t54 -155q0 -65 -33 -102.5t-83 -37.5q-44 0 -74.5 30t-30.5 75q0 46 36 92q36 49 36 63q0 28 -46 56q-68 40 -173 45v-541q219 -77 315.5 -190.5t96.5 -261.5q0 -160 -107 -262t-305 -116v-249h-84v249q-118 0 -211.5 41.5
t-138 109t-44.5 146.5q0 72 35.5 115t87.5 43q48 0 80 -33.5t32 -89.5q0 -57 -46 -96q-53 -46 -53 -62q0 -30 55 -60q76 -42 203 -45v571q-380 122 -380 422q0 157 103 262t277 116v97zM540 833v508q-126 -8 -197 -76t-71 -165q0 -83 54.5 -145.5t213.5 -121.5zM624 578
v-537q138 12 213 83t75 172q0 89 -59.5 156t-228.5 126z" />
    <glyph glyph-name="percent" unicode="%" horiz-adv-x="1706" 
d="M396 1413q131 0 213.5 -98.5t82.5 -274.5q0 -170 -83.5 -266t-211.5 -96q-126 0 -209 97.5t-83 269.5q0 167 84 267.5t207 100.5zM400 1366q-64 0 -104.5 -67t-40.5 -250q0 -189 40 -257.5t102 -68.5q64 0 105 68t41 244q0 194 -39.5 262.5t-103.5 68.5zM1322 1387h87
l-1019 -1387h-86zM1301 707q131 0 213.5 -98.5t82.5 -274.5q0 -169 -83 -265.5t-211 -96.5q-127 0 -210 97.5t-83 270.5q0 166 84 266.5t207 100.5zM1305 660q-64 0 -104.5 -67t-40.5 -250q0 -189 40 -257t102 -68q64 0 105 67.5t41 243.5q0 194 -39.5 262.5t-103.5 68.5z
" />
    <glyph glyph-name="ampersand" unicode="&#x26;" horiz-adv-x="1669" 
d="M703 852q130 -220 199 -321t151 -198q156 194 156 316q0 55 -39 87t-117 32h-53v69h556v-69h-42q-54 0 -89 -16t-64.5 -49.5t-71.5 -123.5q-85 -181 -182 -304q137 -140 239 -140q62 0 103.5 49t55.5 169h62q0 -187 -80.5 -284t-203.5 -97q-69 0 -140.5 35t-172.5 127
q-116 -92 -207 -127t-195 -35q-189 0 -312.5 121t-123.5 298q0 136 78.5 245t282.5 216q-95 195 -95 325q0 141 102.5 240t251.5 99q142 0 224 -73t82 -194q0 -115 -78.5 -210.5t-276.5 -186.5zM665 929q144 63 198 134.5t54 171.5q0 94 -49.5 149t-126.5 55
q-76 0 -126 -52.5t-50 -139.5q0 -127 100 -318zM528 774q-211 -117 -211 -281q0 -126 98.5 -264.5t245.5 -138.5q125 0 255 101q-97 116 -174 229.5t-214 353.5z" />
    <glyph glyph-name="quotesingle" unicode="'" horiz-adv-x="418" 
d="M185 820l-55 300q-23 125 -23 168q0 65 26 95t73 30q46 0 75.5 -30t29.5 -80q0 -37 -27 -183l-55 -300h-44z" />
    <glyph glyph-name="parenleft" unicode="(" horiz-adv-x="682" 
d="M647 1743l26 -55q-142 -151 -209.5 -273t-103 -276.5t-35.5 -357.5q0 -195 37 -348.5t107 -280t204 -267.5l-26 -52q-161 142 -243 242q-134 162 -203 340t-69 372q0 191 64.5 363t190.5 328q87 108 260 265z" />
    <glyph glyph-name="parenright" unicode=")" horiz-adv-x="682" 
d="M35 1743q175 -159 256 -258q126 -155 192.5 -330t66.5 -368q0 -190 -64 -359t-192 -331q-91 -115 -259 -264l-26 52q133 140 203.5 267t107.5 280t37 348q0 204 -36 358.5t-103.5 277t-208.5 272.5z" />
    <glyph glyph-name="asterisk" unicode="*" horiz-adv-x="1024" 
d="M538 1118q37 11 68 28q23 13 82 61q61 51 88 63.5t53 12.5q42 0 70.5 -27.5t28.5 -68.5q0 -45 -34.5 -73t-106.5 -28l-38 1l-66 3q-64 0 -131 -22q52 -62 144 -120q61 -38 79.5 -64.5t18.5 -59.5q0 -41 -28 -69.5t-65 -28.5q-40 0 -69 27t-48 100q-21 84 -37 122
q-12 29 -34 60q-22 -30 -36 -61q-10 -23 -30 -99q-25 -91 -42 -112q-28 -36 -79 -36q-44 0 -71.5 25.5t-27.5 64.5q0 69 95 131q70 46 87 60q23 20 59 60q-53 21 -122 21l-47 -2l-50 -2q-78 0 -114.5 28.5t-36.5 78.5q0 38 26.5 64t66.5 26q59 0 146 -74q47 -40 79 -59
q23 -14 70 -31l1 31q0 47 -26 116q-43 112 -43 144q0 46 28 77t67 31q40 0 68 -29t28 -71q0 -28 -40 -140q-26 -73 -31 -159z" />
    <glyph glyph-name="plus" unicode="+" horiz-adv-x="1241" 
d="M69 759h485v486h134v-486h485v-133h-485v-482h-134v482h-485v133z" />
    <glyph glyph-name="comma" unicode="," horiz-adv-x="569" 
d="M169 -348l-36 48q193 147 193 258q0 16 -5.5 23.5t-16.5 7.5l-22 -4q-19 -3 -31 -3q-45 0 -78.5 35t-33.5 85q0 49 34 83t87 34q66 0 110 -51.5t44 -140.5q0 -195 -245 -375z" />
    <glyph glyph-name="hyphen" unicode="-" horiz-adv-x="682" 
d="M137 864h405v-152h-405v152z" />
    <glyph glyph-name="hyphen" unicode="&#xad;" horiz-adv-x="682" 
d="M137 864h405v-152h-405v152z" />
    <glyph glyph-name="period" unicode="." horiz-adv-x="569" 
d="M285 218q50 0 85 -36t35 -86q0 -52 -35 -88t-86 -36q-50 0 -85.5 36t-35.5 87t35.5 87t86.5 36z" />
    <glyph glyph-name="slash" unicode="/" horiz-adv-x="569" 
d="M569 1479l-440 -1479h-129l441 1479h128z" />
    <glyph glyph-name="zero" unicode="0" horiz-adv-x="1139" 
d="M572 1413q195 0 325 -152q161 -187 161 -567q0 -353 -140 -537.5t-338 -184.5q-191 0 -319 155q-160 195 -160 563q0 350 151 557q121 166 320 166zM578 1341q-132 0 -206 -126.5t-74 -524.5q0 -389 76.5 -519t205.5 -130q130 0 200 120q83 143 83 522q0 392 -78 525
t-207 133z" />
    <glyph glyph-name="one" unicode="1" horiz-adv-x="1139" 
d="M695 1387v-1248q0 -28 20 -43q29 -21 71 -21h194v-75h-719v75h166q52 0 77 24.5t25 65.5v943q0 29 -23 49t-59 20h-222v69q156 20 253 53.5t171 87.5h46z" />
    <glyph glyph-name="two" unicode="2" horiz-adv-x="1139" 
d="M776 160q75 0 107 39t73 216h68l-32 -415h-896v54l291 331q243 264 292 332q70 97 102 187.5t32 164.5q0 123 -68 193.5t-189 70.5q-136 0 -222 -65t-86 -138q0 -25 13 -38q12 -13 52 -23q101 -24 101 -118q0 -51 -34 -84.5t-87 -33.5q-61 0 -107 56.5t-46 147.5
q0 102 52.5 185.5t158.5 137t228 53.5q121 0 224.5 -52t155.5 -136.5t52 -184.5q0 -69 -26 -140t-76 -133q-86 -107 -177 -183l-264 -222q-100 -84 -146 -143t454 -59z" />
    <glyph glyph-name="three" unicode="3" horiz-adv-x="1139" 
d="M720 739q143 -35 223 -116q102 -103 102 -255q0 -172 -122 -276q-139 -120 -362 -120q-134 0 -230.5 44t-144.5 119t-48 169q0 76 37 120t93 44q51 0 82 -33.5t31 -91.5q0 -37 -16 -62.5t-56 -47.5q-43 -23 -43 -44q0 -30 30.5 -67.5t90 -60t150.5 -22.5
q157 0 232.5 77.5t75.5 248.5q0 179 -64.5 254.5t-191.5 75.5q-34 0 -85 -8q-41 -6 -59 -6q-30 0 -46.5 12.5t-16.5 31.5q0 21 15.5 32.5t50.5 11.5l55 -2l48 -2q127 0 191 65t64 201q0 167 -61 237.5t-182 70.5q-111 0 -177 -40t-66 -74q0 -22 38 -59q54 -50 54 -104
q0 -41 -30 -69t-77 -28q-50 0 -81.5 38t-31.5 106q0 106 76 188q108 116 309 116q188 0 300 -101t112 -250q0 -107 -60.5 -185t-208.5 -138z" />
    <glyph glyph-name="four" unicode="4" horiz-adv-x="1139" 
d="M780 1387h65v-946h230v-85h-230v-213q0 -28 22 -45q32 -23 74 -23h85v-75h-555v75h103q52 0 76.5 22t24.5 64v195h-566v96zM675 1116l-483 -675h483v675z" />
    <glyph glyph-name="five" unicode="5" horiz-adv-x="1139" 
d="M277 1413q253 -58 413 -58q75 0 141 14.5t99 33.5q17 9 22 9q10 0 10 -15q0 -35 -45 -92.5t-122.5 -91.5t-178.5 -34q-117 0 -279 36l-33 -382q76 38 145 57t131 19q196 0 329.5 -130t133.5 -321q0 -212 -142 -349t-368 -137q-173 0 -281.5 98.5t-108.5 234.5
q0 82 34.5 126.5t88.5 44.5q53 0 86.5 -35.5t33.5 -92.5q0 -43 -16.5 -67t-60.5 -40q-44 -17 -44 -39q0 -32 30 -70.5t90.5 -63t138.5 -24.5q153 0 233.5 95t80.5 309q0 195 -85 285t-217 90q-60 0 -120 -22t-120 -66q-7 -70 -25 -93.5t-46 -23.5q-20 0 -32 14t-12 39
q0 44 41 87q12 13 17 23l23 294q14 174 15 338z" />
    <glyph glyph-name="six" unicode="6" horiz-adv-x="1139" 
d="M326 656q78 104 164 149t189 45q166 0 278.5 -112.5t112.5 -284.5q0 -207 -133 -344t-329 -137q-138 0 -246 73.5t-176.5 229.5t-68.5 364q0 225 84 408t214.5 274.5t272.5 91.5q146 0 248 -80q85 -65 85 -156q0 -61 -37.5 -100t-91.5 -39q-50 0 -85.5 33t-35.5 78
q0 30 24 68q22 35 22 55q0 28 -27 46q-36 23 -99 23q-97 0 -177 -61t-135.5 -209.5t-55.5 -333.5q0 -27 3 -81zM624 752q-125 0 -204.5 -90.5t-79.5 -254.5q0 -178 77 -272t196 -94q118 0 190 89t72 266q0 188 -66.5 272t-184.5 84z" />
    <glyph glyph-name="seven" unicode="7" horiz-adv-x="1139" 
d="M227 1412q98 -25 212 -25h622v-46q-137 -241 -205 -407.5t-103 -318.5t-46 -354q-10 -167 -19 -206.5t-36.5 -61t-71.5 -21.5q-50 0 -78 34t-28 107q0 65 23 162.5t105 291.5q109 260 189 409l138 254h-542q-60 0 -89.5 -42t-70.5 -251h-72z" />
    <glyph glyph-name="eight" unicode="8" horiz-adv-x="1139" 
d="M773 785q160 -58 231 -151.5t71 -225.5q0 -161 -103 -281q-133 -155 -379 -155q-217 0 -343 104.5t-126 260.5q0 117 72.5 204.5t250.5 148.5q-263 113 -263 349q0 153 118.5 263.5t300.5 110.5q125 0 217.5 -43t141 -117t48.5 -155q0 -188 -237 -313zM696 811
q105 60 141 118.5t36 153.5q0 125 -71 193t-206 68q-131 0 -204 -63.5t-73 -165.5q0 -101 63.5 -161t313.5 -143zM522 662q-142 -60 -197 -135t-55 -184q0 -142 83.5 -220.5t240.5 -78.5q166 0 258 78.5t92 207.5q0 117 -79.5 177t-342.5 155z" />
    <glyph glyph-name="nine" unicode="9" horiz-adv-x="1139" 
d="M860 718q-65 -98 -152 -147.5t-195 -49.5q-150 0 -272.5 105t-122.5 309q0 199 135.5 338.5t323.5 139.5q207 0 345 -172t138 -483q0 -258 -76.5 -435.5t-202.5 -264t-284 -86.5q-153 0 -239.5 67.5t-86.5 161.5q0 62 35.5 100t89.5 38q49 0 83 -33t34 -79q0 -33 -31 -73
q-19 -25 -19 -43q0 -28 33 -48.5t106 -20.5q104 0 183 57.5t128 189t49 340.5zM580 1341q-112 0 -184 -93.5t-72 -281.5q0 -172 72 -256.5t188 -84.5q115 0 193.5 91t78.5 255q0 170 -81.5 270t-194.5 100z" />
    <glyph glyph-name="colon" unicode=":" horiz-adv-x="569" 
d="M287 1276q51 0 86 -35t35 -86q0 -52 -34.5 -86.5t-85.5 -34.5t-86.5 35.5t-35.5 85.5q0 49 35.5 85t85.5 36zM289 529q50 0 85.5 -35.5t35.5 -86.5q0 -52 -35.5 -88t-85.5 -36t-86.5 36t-36.5 86q0 52 36 88t87 36z" />
    <glyph glyph-name="semicolon" unicode=";" horiz-adv-x="569" 
d="M289 1276q51 0 85.5 -35t34.5 -87q0 -49 -35 -84t-84 -35q-52 0 -87.5 35t-35.5 83q0 51 35 87t87 36zM183 -37l-34 47q192 144 192 265q0 25 -21 25q-8 0 -23 -5q-20 -5 -34 -5q-43 0 -76 36t-33 87q0 48 34.5 82t85.5 34q65 0 110 -51.5t45 -134.5q0 -205 -246 -380z
" />
    <glyph glyph-name="semicolon" unicode="&#x37e;" horiz-adv-x="569" 
d="M289 1276q51 0 85.5 -35t34.5 -87q0 -49 -35 -84t-84 -35q-52 0 -87.5 35t-35.5 83q0 51 35 87t87 36zM183 -37l-34 47q192 144 192 265q0 25 -21 25q-8 0 -23 -5q-20 -5 -34 -5q-43 0 -76 36t-33 87q0 48 34.5 82t85.5 34q65 0 110 -51.5t45 -134.5q0 -205 -246 -380z
" />
    <glyph glyph-name="less" unicode="&#x3c;" horiz-adv-x="1241" 
d="M1171 170l-1101 464v120l1101 463v-144l-922 -378l922 -380v-145z" />
    <glyph glyph-name="equal" unicode="=" horiz-adv-x="1241" 
d="M69 1001h1104v-134h-1104v134zM69 526h1104v-133h-1104v133z" />
    <glyph glyph-name="greater" unicode="&#x3e;" horiz-adv-x="1241" 
d="M70 1217l1101 -464v-120l-1101 -463v144l922 379l-922 380v144z" />
    <glyph glyph-name="question" unicode="?" horiz-adv-x="909" 
d="M443 432h-53q0 118 12.5 186t32 107.5t99.5 144.5q63 82 88.5 154.5t25.5 159.5q0 118 -66.5 190t-162.5 72q-83 0 -138.5 -41t-55.5 -84q0 -24 39 -54q59 -46 59 -100q0 -48 -31 -80t-78 -32q-56 0 -94.5 45t-38.5 118q0 115 106 206.5t267 91.5q165 0 272.5 -102
t107.5 -249q0 -94 -37 -170q-28 -57 -141 -160q-147 -132 -178.5 -195t-34.5 -208zM419 216q50 0 85 -35t35 -84q0 -52 -35 -88.5t-85 -36.5t-85 36t-35 89q0 50 35 84.5t85 34.5z" />
    <glyph glyph-name="at" unicode="@" horiz-adv-x="1509" 
d="M1131 1017l-121 -411l-44 -153q-13 -55 -13 -89t17.5 -52.5t45.5 -18.5q67 0 146.5 63.5t137.5 201t58 285.5q0 139 -70.5 261t-189.5 186.5t-277 64.5q-195 0 -360.5 -100t-261.5 -278.5t-96 -399.5q0 -209 81.5 -359t235.5 -238t341 -88q224 0 404.5 123t264.5 334h60
q-70 -227 -273 -374t-462 -147q-321 0 -532 213.5t-211 539.5q0 230 107.5 422t292.5 301t402 109q183 0 319.5 -73t213 -207.5t76.5 -302.5q0 -225 -130 -413t-335 -188q-68 0 -101.5 31t-33.5 89q0 47 16 121q-119 -144 -196 -192.5t-139 -48.5q-63 0 -108.5 52.5
t-45.5 142.5q0 129 80.5 279t194.5 235t196 85q59 0 95 -29.5t49 -88.5l28 94zM832 983q-108 0 -225 -198.5t-117 -331.5q0 -57 28.5 -89.5t71.5 -32.5q54 0 122 57q92 78 157 214.5t65 251.5q0 63 -28.5 96t-73.5 33z" />
    <glyph glyph-name="A" unicode="A" horiz-adv-x="1479" 
d="M715 1510h67l531 -1353q32 -82 131 -82h46v-75h-590v75h47q92 0 130 20q26 14 26 43q0 17 -7 36l-123 314h-584l-69 -180q-27 -72 -27 -114q0 -49 45.5 -84t132.5 -35h50v-75h-536v75q86 0 136 37.5t92 142.5zM686 1225l-265 -659h523z" />
    <glyph glyph-name="B" unicode="B" horiz-adv-x="1479" 
d="M97 1479h771q227 0 347.5 -100t120.5 -251q0 -126 -84 -214t-253 -139q209 -44 313.5 -138.5t104.5 -238.5q0 -110 -59.5 -195t-198 -144t-314.5 -59h-748v75h122q55 0 80.5 18t25.5 41v1185q0 42 -25 63.5t-73 21.5h-130v75zM539 799h280q129 0 205.5 76t76.5 249
q0 107 -36.5 167t-106 87.5t-240.5 27.5q-121 0 -150 -17.5t-29 -61.5v-528zM539 725v-570q0 -40 23.5 -60t84.5 -20h179q178 0 263 78.5t85 244.5q0 152 -88 239.5t-243 87.5h-304z" />
    <glyph glyph-name="C" unicode="C" horiz-adv-x="1479" 
d="M1185 1364l69 143h63l26 -595h-67q-66 251 -166 370q-124 149 -296 149q-186 0 -303 -166t-117 -562q0 -333 134 -508q114 -148 320 -148q180 0 302 115.5t159 348.5h71q-31 -264 -181 -406t-378 -142q-185 0 -339.5 93t-247 267.5t-92.5 382.5q0 221 95.5 415
t244.5 291.5t321 97.5q96 0 186 -33t196 -113z" />
    <glyph glyph-name="D" unicode="D" horiz-adv-x="1593" 
d="M70 1479h764q170 0 289 -60q148 -76 251.5 -253t103.5 -419q0 -200 -62 -360q-47 -123 -144.5 -215t-237.5 -138q-105 -34 -280 -34h-684v75h140q53 0 73.5 17t20.5 53v1191q0 31 -22 49.5t-61 18.5h-151v75zM606 1404q-45 0 -66.5 -19t-21.5 -57v-1180q0 -36 25 -54.5
t85 -18.5h126q169 0 296 87q83 58 126 163q59 142 59 392q0 370 -129 542q-110 145 -332 145h-168z" />
    <glyph glyph-name="E" unicode="E" horiz-adv-x="1479" 
d="M134 1479h1172l28 -499h-67q-40 236 -126.5 330t-225.5 94h-290q-35 0 -53 -19t-18 -58v-527h127q102 0 165.5 73t68.5 224h69v-685h-69q-5 170 -69.5 243.5t-175.5 73.5h-116v-588q0 -32 21.5 -49t71.5 -17h229q373 0 430 476h72l-25 -551h-1219v75h101q59 0 83 20.5
t24 59.5v1172q0 39 -21 58t-66 19h-121v75z" />
    <glyph glyph-name="F" unicode="F" horiz-adv-x="1366" 
d="M106 1479h1203l20 -512h-69q-46 264 -129 344q-95 93 -271 93h-237q-35 0 -51 -16.5t-16 -49.5v-535h127q106 0 169 70t68 216h72v-667h-72q-7 166 -68 237t-169 71h-127v-564q0 -50 24 -70.5t83 -20.5h154v-75h-711v75h152q46 0 65.5 18.5t19.5 60.5v1176q0 40 -20.5 57
t-71.5 17h-145v75z" />
    <glyph glyph-name="G" unicode="G" horiz-adv-x="1593" 
d="M1151 1363l82 147h67l37 -590h-65q-75 255 -177 369q-130 145 -298 145q-129 0 -231 -73t-156.5 -219t-54.5 -411q0 -257 54.5 -402t150.5 -213.5t225 -68.5q175 0 270.5 98t95.5 253v139q0 33 -25.5 51t-83.5 18h-125v70h620v-70h-84q-56 0 -80 -19.5t-24 -56.5v-565
h-66q-36 132 -75 253q-75 -123 -178.5 -184.5t-234.5 -61.5q-187 0 -346.5 96t-252 270.5t-92.5 394.5q0 221 93 396t254.5 278t326.5 103q94 0 179.5 -31.5t193.5 -115.5z" />
    <glyph glyph-name="H" unicode="H" horiz-adv-x="1706" 
d="M96 1479h631v-75h-116q-61 0 -79.5 -21.5t-18.5 -104.5v-456h677v456q0 86 -17.5 106t-82.5 20h-108v75h628v-75h-115q-43 0 -60.5 -11t-28.5 -38q-6 -17 -6 -89v-1064q0 -77 13 -93q26 -34 95 -34h102v-75h-628v75h108q64 0 87 35q13 19 13 100v514h-677v-522
q0 -78 12 -94q25 -33 86 -33h116v-75h-631v75h121q32 0 51 13t28 37q5 16 5 85v1068q0 83 -18.5 104.5t-80.5 21.5h-106v75z" />
    <glyph glyph-name="I" unicode="I" horiz-adv-x="834" 
d="M76 1479h682v-75h-117q-78 0 -98.5 -19.5t-20.5 -82.5v-1120q0 -67 18 -84q24 -23 87 -23h131v-75h-682v75h129q68 0 88 20t20 87v1120q0 64 -18 79q-28 23 -103 23h-116v75z" />
    <glyph glyph-name="J" unicode="J" horiz-adv-x="1139" 
d="M423 1479h654v-75h-93q-55 0 -78.5 -20t-23.5 -58v-959q0 -111 -54 -200.5t-158 -142t-235 -52.5q-178 0 -291 104.5t-113 255.5q0 112 57 179t140 67q68 0 112 -43.5t44 -110.5q0 -58 -36 -97.5t-83 -39.5q-18 0 -50 10q-27 8 -36 8q-17 0 -27 -14q-11 -14 -11 -42
q0 -75 75.5 -136.5t185.5 -61.5q125 0 197 86.5t72 241.5v947q0 39 -26.5 58.5t-90.5 19.5h-131v75z" />
    <glyph glyph-name="K" unicode="K" horiz-adv-x="1593" 
d="M83 1479h676v-75h-144q-46 0 -71 -24t-25 -61v-687l557 595q48 52 48 98q0 35 -33 57t-108 22h-41v75h607v-75h-47q-61 0 -134 -36t-135 -100l-343 -357l491 -724q41 -61 85 -86.5t104 -25.5h54v-75h-667v75h76q83 0 110.5 14t27.5 35q0 19 -12 38l-408 600l-232 -249
v-364q0 -34 20 -50q32 -24 76 -24h144v-75h-676v75h130q50 0 74 20.5t24 53.5v1181q0 35 -27 54.5t-91 19.5h-110v75z" />
    <glyph glyph-name="L" unicode="L" horiz-adv-x="1366" 
d="M64 1479h685v-75h-164q-39 0 -57.5 -20.5t-18.5 -64.5v-1167q0 -42 23.5 -59.5t94.5 -17.5h208q166 0 271.5 110.5t153.5 383.5h70l-34 -569h-1232v75h121q62 0 87 23.5t25 75.5v1155q0 37 -21 56t-62 19h-150v75z" />
    <glyph glyph-name="M" unicode="M" horiz-adv-x="1933" 
d="M34 1479h493l441 -1168l407 1168h504v-75h-123q-65 0 -87.5 -19t-22.5 -66v-1171q0 -35 27 -54t93 -19h113v-75h-676v75h126q54 0 80 20.5t26 52.5v1256l-489 -1404h-68l-526 1398v-1075q0 -96 24 -143.5t68.5 -73t147.5 -31.5v-75h-558v75q137 9 186 59t49 177v1020
q0 38 -23 55.5t-86 17.5h-126v75z" />
    <glyph glyph-name="N" unicode="N" horiz-adv-x="1669" 
d="M84 1479h353l892 -1162v841q0 127 -58 188q-53 56 -158 58v75h517v-75q-79 0 -118 -22t-68 -80t-29 -127v-1175h-94l-923 1209v-892q0 -121 61 -180.5t189 -61.5v-75h-564v75q106 4 168 69.5t62 160.5v1003l-17 18q-50 54 -71 64q-29 14 -75 14h-67v75z" />
    <glyph glyph-name="O" unicode="O" horiz-adv-x="1593" 
d="M784 1510q187 0 350.5 -98.5t256 -275t92.5 -397.5t-93 -399t-255.5 -277.5t-344.5 -99.5q-178 0 -334 97.5t-250.5 279t-94.5 402.5q0 218 91.5 393.5t250.5 275t331 99.5zM800 1433q-195 0 -316 -162t-121 -528q0 -397 124 -549t307 -152q128 0 225 69t154.5 219
t57.5 394q0 266 -54 415.5t-154 221.5t-223 72z" />
    <glyph glyph-name="P" unicode="P" horiz-adv-x="1366" 
d="M80 1479h729q247 0 377 -112t130 -293t-120 -276q-165 -131 -407 -131h-264v-505q0 -44 21 -63q28 -24 75 -24h168v-75h-709v75h148q44 0 64.5 17.5t20.5 47.5v1179q0 45 -26 65t-98 20h-109v75zM525 740h201q191 0 275.5 79.5t84.5 262.5q0 128 -38 196.5t-111.5 101.5
t-241.5 33q-111 0 -140.5 -21t-29.5 -73v-579z" />
    <glyph glyph-name="Q" unicode="Q" horiz-adv-x="1593" 
d="M1182 92q16 -41 35 -112q35 -133 67 -173t73 -40q38 0 65.5 42.5t29.5 141.5h60q-1 -180 -70 -265t-180 -85q-103 0 -167.5 82.5t-85.5 316.5q-56 -14 -108 -21t-99 -7q-186 0 -343.5 96.5t-250 277t-92.5 407.5q0 322 209 550q190 207 472 207q189 0 345 -95.5t250 -274
t94 -399.5q0 -202 -73.5 -360t-230.5 -289zM1132 230q54 102 79 221t25 298q0 252 -55 398.5t-155 216.5t-226 70q-124 0 -222.5 -70t-154 -218.5t-55.5 -403.5q0 -180 33 -309t103 -245q-2 46 -2 74q0 124 79.5 204t208.5 80q130 0 218 -87q66 -66 124 -229zM1009 103
q-2 180 -47 261q-57 104 -175 104q-94 0 -154 -60t-60 -155q0 -94 74 -178q71 -31 149 -31q60 0 113 15t100 44z" />
    <glyph glyph-name="R" unicode="R" horiz-adv-x="1479" 
d="M52 1479h764q222 0 344.5 -101t122.5 -265q0 -98 -48.5 -174.5t-140 -122t-287.5 -65.5q143 -39 197 -76.5t86.5 -97t74.5 -242.5q30 -131 64 -179q26 -37 56 -37q31 0 57.5 45.5t32.5 160.5h68q-19 -340 -251 -340q-73 0 -126.5 37t-80.5 109q-21 54 -47 283
q-15 133 -47.5 189t-101.5 90t-165 34h-121v-581q0 -37 19 -52q24 -19 75 -19h142v-75h-687v75h145q48 0 70.5 19t22.5 52v1182q0 38 -23 57t-70 19h-145v75zM503 799h175q176 0 275.5 66.5t99.5 236.5q0 117 -37.5 185t-98.5 93t-240 25q-118 0 -146 -16.5t-28 -56.5v-533z
" />
    <glyph glyph-name="S" unicode="S" horiz-adv-x="1290" 
d="M947 1367l90 129h73l6 -539h-66q-62 248 -183.5 362t-279.5 114q-132 0 -216 -79t-84 -193q0 -71 32 -124.5t95.5 -87t239.5 -71.5q247 -54 346.5 -109t148.5 -138.5t49 -195.5q0 -200 -134.5 -331.5t-347.5 -131.5q-229 0 -398 148l-113 -138h-72v573h72
q42 -237 188 -374t329 -137q148 0 241.5 87.5t93.5 212.5q0 71 -35 124.5t-111 90t-299 88.5q-245 58 -334 130q-125 102 -125 289q0 195 124.5 319.5t318.5 124.5q93 0 177 -33t174 -110z" />
    <glyph glyph-name="T" unicode="T" horiz-adv-x="1366" 
d="M90 1479h1200l29 -559h-69q-68 493 -356 493q-58 0 -79.5 -20t-21.5 -66v-1182q0 -36 21 -53t69 -17h149v-75h-687v75h170q34 0 52 17t18 45v1199q0 38 -23 57.5t-74 19.5q-145 0 -242 -137q-80 -113 -115 -356h-73z" />
    <glyph glyph-name="U" unicode="U" horiz-adv-x="1669" 
d="M54 1479h683v-75h-137q-55 0 -77 -18t-22 -55v-835q0 -131 23 -198q34 -99 124.5 -158t236.5 -59q202 0 308 104.5t106 279.5v679q0 90 -12.5 136.5t-36 72.5t-59.5 38.5t-120 12.5v75h559v-75h-40q-94 0 -140 -50.5t-46 -146.5v-727q0 -238 -136 -365
q-153 -143 -407 -143q-220 0 -346 62.5t-183 179.5q-43 89 -43 224v893q0 34 -23.5 53.5t-70.5 19.5h-141v75z" />
    <glyph glyph-name="V" unicode="V" horiz-adv-x="1479" 
d="M-9 1479h623v-75h-108q-67 0 -91 -16t-24 -43q0 -21 18 -61l8 -21l389 -991l345 946q10 28 10 68q0 56 -32.5 87t-89.5 31h-101v75h546v-75h-44q-50 0 -99.5 -47t-89.5 -155l-458 -1237h-73l-522 1322q-27 66 -62.5 91.5t-96.5 25.5h-48v75z" />
    <glyph glyph-name="W" unicode="W" horiz-adv-x="2009" 
d="M35 1479h494v-75h-35q-78 0 -99.5 -12t-21.5 -38q0 -18 15 -57l6 -19l301 -939l264 867q-46 148 -70.5 173t-97.5 25h-90v75h617v-75h-64q-84 0 -109 -13.5t-25 -40.5q0 -21 6 -39l307 -972l252 841q15 49 15 94q0 67 -30.5 98.5t-91.5 31.5h-46v75h464v-75
q-61 -8 -97 -29.5t-62.5 -61.5t-53.5 -133l-364 -1215h-70l-342 1085l-324 -1085h-75l-416 1313q-25 77 -56.5 101.5t-100.5 24.5v75z" />
    <glyph glyph-name="X" unicode="X" horiz-adv-x="1442" 
d="M37 1479h607v-75h-71q-77 0 -102.5 -13t-25.5 -33q0 -15 29 -57l283 -416l217 330q42 64 42 103t-36 62t-135 24v75h537v-75q-88 0 -139 -30q-69 -40 -127 -126l-304 -444l467 -674q20 -29 49.5 -41.5t102.5 -13.5v-75h-586v75h81q59 0 81.5 14.5t22.5 36.5q0 23 -30 67
l-302 440l-224 -322q-53 -76 -53 -134q0 -49 31 -75.5t91 -26.5h58v-75h-564v75q88 3 157.5 46.5t136.5 141.5l313 452l-404 580q-48 69 -85 88.5t-118 20.5v75z" />
    <glyph glyph-name="Y" unicode="Y" horiz-adv-x="1442" 
d="M-12 1479h648v-75h-72q-90 0 -117 -14t-27 -39q0 -26 14 -47l376 -583l270 497q18 33 18 72q0 52 -34 83t-97 31h-69v75h564v-75q-97 0 -153 -34t-108 -128l-341 -625v-468q0 -37 21 -53q29 -21 86 -21h127v-75h-679v75h134q54 0 78 19.5t24 54.5v455l-459 715
q-30 46 -70 64.5t-134 20.5v75z" />
    <glyph glyph-name="Z" unicode="Z" horiz-adv-x="1251" 
d="M150 1479h1007v-75l-845 -1329h321q138 0 226 45t142.5 134.5t99.5 300.5h70l-27 -555h-1070v67l853 1337h-305q-125 0 -194 -29q-94 -39 -153 -139.5t-83 -268.5h-70z" />
    <glyph glyph-name="bracketleft" unicode="[" horiz-adv-x="682" 
d="M242 1720h417v-75h-177q-42 0 -62 -22.5t-20 -73.5v-1514q0 -55 22 -79.5t60 -24.5h177v-75h-417v1864z" />
    <glyph glyph-name="backslash" unicode="\" horiz-adv-x="1241" 
d="M163 1479l1044 -1479h-129l-1044 1479h129z" />
    <glyph glyph-name="bracketright" unicode="]" horiz-adv-x="682" 
d="M440 -144h-417v75h177q42 0 62 22.5t20 73.5v1514q0 55 -21.5 79.5t-60.5 24.5h-177v75h417v-1864z" />
    <glyph glyph-name="asciicircum" unicode="^" horiz-adv-x="1241" 
d="M639 1413l431 -727h-129l-319 558l-321 -558h-129l437 727h30z" />
    <glyph glyph-name="underscore" unicode="_" horiz-adv-x="1024" 
d="M-12 -154h1048v-102h-1048v102z" />
    <glyph glyph-name="grave" unicode="`" horiz-adv-x="682" 
d="M540 1119l-23 -25l-278 203q-110 81 -110 132q0 30 25.5 55.5t58.5 25.5q55 0 100 -64z" />
    <glyph glyph-name="a" unicode="a" horiz-adv-x="1139" 
d="M1057 103l36 -56q-73 -75 -162 -75q-68 0 -114.5 37t-81.5 130q-95 -100 -167 -133.5t-173 -33.5q-144 0 -219 62t-75 159q0 146 171.5 242.5t456.5 128.5v142q0 76 -61 130t-155 54q-87 0 -150 -36q-45 -27 -45 -53q0 -15 24 -47q29 -40 29 -71q0 -45 -29 -73.5
t-76 -28.5q-50 0 -83.5 34t-33.5 87q0 99 111.5 181t292.5 82q167 0 255 -72q88 -73 88 -177v-512q0 -68 22 -100q22 -33 57 -33q39 0 82 32zM729 498q-254 -35 -360 -114q-79 -60 -79 -170q0 -77 41 -120.5t107 -43.5q118 0 204.5 89.5t86.5 224.5v134z" />
    <glyph glyph-name="b" unicode="b" horiz-adv-x="1139" 
d="M357 1496v-696q59 83 131 124t157 41q165 0 279 -129t114 -340q0 -229 -122.5 -369.5t-303.5 -140.5q-86 0 -156 34t-144 115q-57 -91 -110 -149l-40 14q28 115 28 240v1059q0 49 -34.5 77t-97.5 28h-42v75zM609 877q-113 0 -184 -98.5t-71 -325.5q0 -216 70 -309
t183 -93q102 0 164 92q78 116 78 331q0 212 -68.5 307.5t-171.5 95.5z" />
    <glyph glyph-name="c" unicode="c" horiz-adv-x="909" 
d="M783 278l65 -19q-78 -287 -344 -287q-195 0 -319 129t-124 343q0 248 136 384.5t320 136.5q138 0 228 -76t90 -169q0 -56 -33.5 -92.5t-79.5 -36.5q-45 0 -76 31t-31 75t34 84q16 19 16 30q0 29 -39 56.5t-106 27.5q-122 0 -185 -89q-90 -129 -90 -340q0 -201 80 -304.5
t204 -103.5q171 0 254 220z" />
    <glyph glyph-name="d" unicode="d" horiz-adv-x="1176" 
d="M598 1479l366 17v-1282q0 -75 28.5 -107t85.5 -32h65v-75h-320l-24 191q-57 -102 -133.5 -153.5t-171.5 -51.5q-160 0 -272.5 134t-112.5 354q0 238 144 380q113 111 260 111q90 0 161.5 -45t124.5 -136v529q0 42 -32.5 66.5t-101.5 24.5h-67v75zM540 882
q-108 0 -171.5 -89t-63.5 -300q0 -229 65 -322.5t167 -93.5q109 0 186.5 104.5t77.5 305.5q0 190 -83 299q-72 96 -178 96z" />
    <glyph glyph-name="e" unicode="e" horiz-adv-x="1024" 
d="M946 462h-671q5 -214 80 -302q86 -99 219 -99q196 0 315 223l65 -28q-146 -284 -422 -284q-188 0 -316.5 136t-128.5 348q0 228 126.5 368.5t311.5 140.5q136 0 235 -70t149 -201q35 -92 37 -232zM275 533h406q36 0 56 24.5t20 83.5q0 110 -68.5 187t-161.5 77
q-104 0 -176.5 -93t-75.5 -279z" />
    <glyph glyph-name="f" unicode="f" horiz-adv-x="682" 
d="M387 937h234v-87h-234v-684q0 -47 22 -66q30 -25 84 -25h128v-75h-574v75h79q53 0 74 18t21 56v701h-162v87h162v70q0 248 103 378.5t255 130.5q113 0 176.5 -55t63.5 -144q0 -58 -30.5 -91.5t-77.5 -33.5q-42 0 -69.5 27t-27.5 68q0 47 36 77q29 24 29 36q0 17 -22.5 31
t-67.5 14q-85 0 -143.5 -75.5t-58.5 -224.5v-208z" />
    <glyph glyph-name="g" unicode="g" horiz-adv-x="1100" 
d="M785 884q100 101 184 101q50 0 83 -32t33 -78q0 -37 -22.5 -61.5t-52.5 -24.5q-57 0 -77 70q-8 30 -27 30q-34 0 -74 -45q43 -59 59 -102.5t16 -93.5q0 -87 -42 -153.5t-139.5 -117.5t-186.5 -51h-109q-116 0 -154 -24q-38 -25 -38 -73q0 -39 31 -60t117 -21l247 5
q187 0 269.5 -62.5t82.5 -171.5q0 -120 -94 -202q-131 -116 -391 -116q-215 0 -319 79q-82 62 -82 139q0 59 52.5 108t176.5 73q-99 24 -149 70.5t-50 115.5q0 64 40.5 111.5t140.5 81.5q-85 47 -128 113.5t-43 152.5q0 136 107 228t278 92q70 0 135 -20t126 -61zM522 901
q-89 0 -147 -65.5t-58 -183.5q0 -126 58 -195.5t148 -69.5t147.5 67.5t57.5 193.5q0 117 -58.5 185t-147.5 68zM581 -1q-184 0 -262.5 -51t-78.5 -123q0 -68 59 -107q78 -52 222 -52q172 0 259 57t87 127q0 41 -27 76.5t-86 54t-173 18.5z" />
    <glyph glyph-name="h" unicode="h" horiz-adv-x="1251" 
d="M43 1479l355 17v-722q74 96 159 143.5t180 47.5q90 0 162 -43q56 -34 95.5 -119t39.5 -201v-445q0 -43 22 -62.5t69 -19.5h80v-75h-506v75h56q64 0 88.5 20.5t24.5 61.5v445q0 117 -56.5 182.5t-144.5 65.5q-69 0 -128 -37t-100 -112.5t-41 -159.5v-374q0 -50 21 -71
t69 -21h80v-75h-495v75h56q57 0 81 22.5t24 69.5v1118q0 60 -31.5 89.5t-91.5 29.5h-68v75z" />
    <glyph glyph-name="i" unicode="i" horiz-adv-x="645" 
d="M308 1496q45 0 79 -34t34 -80q0 -45 -33 -78t-79 -33t-79.5 33.5t-33.5 78.5t34 79t78 34zM49 937l372 11v-806q0 -33 16 -47q23 -20 58 -20h106v-75h-532v75h99q44 0 64.5 21.5t20.5 62.5v590q0 56 -32 84.5t-95 28.5h-77v75z" />
    <glyph glyph-name="j" unicode="j" horiz-adv-x="606" 
d="M319 1498q49 0 81 -31.5t32 -79.5q0 -49 -32 -81t-80 -32q-46 0 -80 33.5t-34 78.5t34 78.5t79 33.5zM419 951v-896q0 -196 -107 -325t-238 -129q-66 0 -102 32.5t-36 88.5q0 49 29 79t73 30q70 0 91 -91q7 -30 14 -37.5t22 -7.5q18 0 35 17q24 26 38 87q18 84 18 166
v789q0 55 -34 84t-101 29h-85v70z" />
    <glyph glyph-name="k" unicode="k" horiz-adv-x="1214" 
d="M51 1479l358 17v-1023l305 265q44 39 44 68q0 25 -26 39q-39 20 -127 22v70h499v-70q-148 -8 -226 -78l-215 -191l349 -480q32 -43 111 -43h52v-75h-512v75h51q57 0 76.5 10t19.5 24t-10 28l-254 356l-137 -119v-237q0 -29 19 -43q27 -19 75 -19h65v-75h-503v75h81
q50 0 74 21t24 56v1156q0 45 -29 66q-42 30 -113 30h-51v75z" />
    <glyph glyph-name="l" unicode="l" horiz-adv-x="645" 
d="M420 1496v-1358q0 -28 17 -43q25 -20 61 -20h99v-75h-530v75h94q46 0 68.5 22t22.5 62v1140q0 50 -27 73q-37 32 -91 32h-84v75z" />
    <glyph glyph-name="m" unicode="m" horiz-adv-x="1821" 
d="M125 937l268 17q22 -105 29 -200q76 110 152 155t167 45q97 0 160 -51t97 -166q67 109 149 163t179 54q128 0 192 -76q82 -100 82 -258v-465q0 -42 21 -57q28 -23 83 -23h47v-75h-471v75h47q60 0 84 20t24 60v465q0 104 -51 161t-134 57q-63 0 -114 -33.5t-80 -95.5
q-43 -89 -43 -151v-403q0 -41 22 -60.5t68 -19.5h64v-75h-477v75h54q51 0 76 20t25 51v432q0 137 -48.5 199t-130.5 62q-106 0 -163 -72q-81 -102 -81 -238v-374q0 -43 19 -59q27 -21 84 -21h48v-75h-472v75h71q40 0 61.5 20t21.5 51v614q0 51 -26 76t-104 32v69z" />
    <glyph glyph-name="n" unicode="n" horiz-adv-x="1251" 
d="M67 937l311 19q19 -88 28 -206q63 102 148.5 153t193.5 51q93 0 156 -36.5t101 -115.5t38 -177v-456q0 -51 23 -72.5t77 -21.5h66v-75h-494v75h47q66 0 92 21t26 63v401q0 131 -40 194q-56 90 -170 90q-113 0 -188.5 -91t-75.5 -237v-347q0 -51 23.5 -72.5t77.5 -21.5h65
v-75h-496v75h65q49 0 74.5 20t25.5 50v605q0 60 -32.5 91t-93.5 31h-48v65z" />
    <glyph glyph-name="o" unicode="o" horiz-adv-x="1024" 
d="M509 965q189 0 317.5 -136.5t128.5 -359.5q0 -154 -57.5 -262.5t-164 -171.5t-229.5 -63q-182 0 -308.5 138t-126.5 358q0 221 127 359t313 138zM509 894q-112 0 -184 -101.5t-72 -320.5q0 -223 71.5 -326t184.5 -103q117 0 189.5 103t72.5 337q0 217 -71.5 314
t-190.5 97z" />
    <glyph glyph-name="p" unicode="p" horiz-adv-x="1176" 
d="M363 954q22 -105 26 -202q69 110 145 156t166 46q96 0 183.5 -59t142 -173t54.5 -257q0 -229 -134 -373q-111 -120 -266 -120q-88 0 -159 45t-126 134v-379q0 -44 21 -62q27 -24 75 -24h69v-71h-499v71h69q48 0 72 19t24 50v986q0 69 -33 97.5t-132 31.5v67zM654 863
q-109 0 -184.5 -105t-75.5 -304q0 -201 73 -297t186 -96q106 0 163 82q73 108 73 316q0 218 -66 311t-169 93z" />
    <glyph glyph-name="q" unicode="q" horiz-adv-x="1139" 
d="M840 802q51 84 113 152l35 -17q-28 -118 -28 -254v-901q0 -53 21 -71q28 -25 88 -25h40v-71h-491v71h66q60 0 85 23t25 73v356q-59 -83 -131 -124.5t-157 -41.5q-163 0 -281 137.5t-118 346.5q0 140 60 257t158.5 179t209.5 62q80 0 152 -34t153 -118zM548 887
q-105 0 -174.5 -100t-69.5 -312q0 -216 69.5 -313t172.5 -97q67 0 125.5 42t91.5 126.5t33 227.5q0 167 -30 252.5t-90 129.5t-128 44z" />
    <glyph glyph-name="r" unicode="r" horiz-adv-x="909" 
d="M52 937l337 17v-379q54 187 130 283t188 96q76 0 121.5 -46.5t45.5 -124.5q0 -63 -30.5 -98t-76.5 -35q-45 0 -72.5 30t-27.5 81q0 33 16 62q15 26 15 31q0 15 -19 15q-41 0 -93 -48q-72 -67 -111 -184q-60 -182 -60 -291v-201q0 -34 24 -52t82 -18h119v-75h-582v75h93
q47 0 71 18.5t24 44.5v597q0 68 -29 99.5t-83 31.5h-82v71z" />
    <glyph glyph-name="s" unicode="s" horiz-adv-x="948" 
d="M179 353q62 -173 142.5 -239.5t198.5 -66.5q109 0 167.5 47.5t58.5 120.5q0 42 -21.5 73.5t-59.5 47t-197 45.5q-152 30 -212 63t-93.5 91t-33.5 126q0 103 69 187q89 107 249 107q122 0 226 -77l66 70h41l26 -334h-67q-44 142 -119 204.5t-185 62.5q-95 0 -149 -46.5
t-54 -113.5q0 -59 50 -98q49 -40 192 -63q166 -28 216 -47q82 -30 127 -92.5t45 -152.5q0 -124 -97.5 -210t-247.5 -86q-139 0 -258 92l-73 -84h-53l-20 373h66z" />
    <glyph glyph-name="t" unicode="t" horiz-adv-x="797" 
d="M313 1319h68v-382h303v-92h-303v-601q0 -78 37 -119.5t94 -41.5q68 0 116 63t56 208h67q-6 -187 -85 -277.5t-205 -90.5q-116 0 -181.5 63.5t-65.5 166.5v629h-163v70q111 19 169 93q86 111 93 311z" />
    <glyph glyph-name="u" unicode="u" horiz-adv-x="1251" 
d="M388 954v-621q0 -114 57.5 -176t148.5 -62q112 0 190.5 90.5t78.5 226.5v351q0 48 -34.5 74.5t-132.5 29.5v70l329 17v-769q0 -53 30 -81.5t84 -28.5h59v-67l-315 -8l-20 185q-84 -99 -169 -149t-172 -50q-127 0 -213 85q-87 84 -87 285v407q0 54 -43 82q-30 20 -123 22
v70z" />
    <glyph glyph-name="v" unicode="v" horiz-adv-x="1100" 
d="M26 937h461v-68q-92 -2 -117.5 -16.5t-25.5 -41.5q0 -22 10 -44l248 -553l227 536q5 14 5 28q0 73 -144 91v68h388v-68q-59 -6 -94 -32t-54 -70l-344 -795h-54l-368 817q-20 44 -48.5 61.5t-89.5 18.5v68z" />
    <glyph glyph-name="w" unicode="w" horiz-adv-x="1593" 
d="M53 937h411v-69h-54q-40 0 -57 -12.5t-17 -33.5q0 -22 10 -47l211 -530l183 504q-38 80 -67 99.5t-102 19.5v69h452v-69h-38q-52 0 -71.5 -13.5t-19.5 -37.5q0 -18 9 -42l213 -530l169 471q17 47 17 80t-26 51t-98 21v69h365v-69q-68 -11 -103 -42.5t-59 -96.5l-272 -757
h-58l-264 657l-236 -657h-58l-336 828q-16 39 -36 52.5t-68 15.5v69z" />
    <glyph glyph-name="x" unicode="x" horiz-adv-x="1100" 
d="M48 937h452v-69q-110 -4 -110 -39q0 -16 18 -41l162 -214l158 198q17 22 17 42q0 43 -121 54v69h395v-69q-143 -23 -219 -119l-183 -230l289 -376q29 -37 63 -52.5t100 -15.5v-75h-479v75h34q53 0 78 11q16 8 16 20q0 11 -19 37l-188 249l-151 -194q-32 -41 -32 -66
t22 -38q31 -18 105 -19v-75h-407v75q74 7 114 31q66 41 119 107l186 236l-275 356q-46 60 -144 63v69z" />
    <glyph glyph-name="y" unicode="y" horiz-adv-x="1100" 
d="M46 937h449v-68h-42q-59 0 -80.5 -15.5t-21.5 -44.5q0 -13 6 -26l261 -564l194 468q21 50 21 98q0 37 -29 57.5t-116 26.5v68h390v-68q-113 -11 -152 -101l-346 -807q-89 -205 -178 -282q-90 -78 -193 -78q-75 0 -120.5 41t-45.5 101q0 45 28 74t70 29q38 0 64 -25
t26 -60q0 -11 -4 -30q-4 -15 -4 -22q0 -24 31 -24q33 0 74.5 24t77.5 77t126 234l-355 763q-19 40 -47.5 59.5t-83.5 26.5v68z" />
    <glyph glyph-name="z" unicode="z" horiz-adv-x="985" 
d="M151 937h743v-60l-589 -802h287q99 0 158 62t91 230h67l-22 -367h-788v69l588 797h-249q-78 0 -116.5 -21.5t-66.5 -71t-52 -170.5h-74z" />
    <glyph glyph-name="braceleft" unicode="{" horiz-adv-x="682" 
d="M680 -131v-36q-168 22 -276 137.5t-108 260.5q0 54 23 169q23 113 23 148q0 78 -63 141.5t-170 77.5v42q110 15 172 79.5t62 149.5q0 45 -24 144q-23 101 -23 156q0 151 103 263.5t281 141.5v-33q-231 -53 -231 -249q0 -45 18 -125q29 -129 29 -182q0 -118 -76.5 -214
t-226.5 -149q142 -52 222.5 -151.5t80.5 -207.5q0 -56 -22 -154q-25 -120 -25 -165q0 -88 58 -153t173 -91z" />
    <glyph glyph-name="bar" unicode="|" horiz-adv-x="1241" 
d="M554 1479h134v-1726h-134v1726z" />
    <glyph glyph-name="braceright" unicode="}" horiz-adv-x="682" 
d="M7 -131q114 26 173 91t59 150q0 47 -26 168q-21 98 -21 149q0 112 79.5 211.5t222.5 152.5q-150 53 -226 149t-76 214q0 54 29 182q18 81 18 125q0 196 -232 249v33q178 -29 281.5 -141.5t103.5 -262.5q0 -56 -24 -157q-23 -100 -23 -144q0 -86 62 -150t171 -79v-42
q-106 -14 -169.5 -77.5t-63.5 -141.5q0 -35 23 -148q24 -115 24 -169q0 -145 -108.5 -260t-276.5 -138v36z" />
    <glyph glyph-name="asciitilde" unicode="~" horiz-adv-x="1241" 
d="M1115 849h53q-3 -144 -77.5 -226.5t-185.5 -82.5q-51 0 -108 16.5t-271 105.5q-152 63 -217 63q-149 0 -183 -183h-53q8 153 79 231t174 78q52 0 108 -17q104 -30 279 -106q94 -41 150 -57q32 -8 69 -8q74 0 123.5 47.5t59.5 138.5z" />
    <glyph glyph-name="Adieresis" unicode="&#xc4;" horiz-adv-x="1479" 
d="M715 1510h67l531 -1353q32 -82 131 -82h46v-75h-590v75h47q92 0 130 20q26 14 26 43q0 17 -7 36l-123 314h-584l-69 -180q-27 -72 -27 -114q0 -49 45.5 -84t132.5 -35h50v-75h-536v75q86 0 136 37.5t92 142.5zM686 1225l-265 -659h523zM547 1863q43 0 73 -29.5t30 -71.5
q0 -43 -30.5 -73.5t-72.5 -30.5t-72 31t-30 74q0 42 30 71t72 29zM932 1860q43 0 73 -29.5t30 -72.5t-30.5 -73.5t-72.5 -30.5q-43 0 -73.5 30.5t-30.5 72.5q0 43 30.5 73t73.5 30z" />
    <glyph glyph-name="Aring" unicode="&#xc5;" horiz-adv-x="1479" 
d="M715 1510h67l531 -1353q32 -82 131 -82h46v-75h-590v75h47q92 0 130 20q26 14 26 43q0 17 -7 36l-123 314h-584l-69 -180q-27 -72 -27 -114q0 -49 45.5 -84t132.5 -35h50v-75h-536v75q86 0 136 37.5t92 142.5zM686 1225l-265 -659h523zM738 2019q84 0 145 -61t61 -146
q0 -87 -61 -148.5t-148 -61.5q-86 0 -147 60.5t-61 146.5q0 87 61.5 148.5t149.5 61.5zM737 1937q-53 0 -90.5 -37.5t-37.5 -90.5q0 -52 37 -88.5t90 -36.5q51 0 88.5 37.5t37.5 89.5q0 53 -36.5 89.5t-88.5 36.5z" />
    <glyph glyph-name="Ccedilla" unicode="&#xc7;" horiz-adv-x="1479" 
d="M1185 1364l69 143h63l26 -595h-67q-66 251 -166 370q-124 149 -296 149q-186 0 -303 -166t-117 -562q0 -333 134 -508q114 -148 320 -148q180 0 302 115.5t159 348.5h71q-31 -264 -181 -406t-378 -142q-185 0 -339.5 93t-247 267.5t-92.5 382.5q0 221 95.5 415
t244.5 291.5t321 97.5q96 0 186 -33t196 -113zM819 -39q80 -13 121.5 -54t41.5 -95q0 -85 -70.5 -143t-202.5 -58q-38 0 -104 4v77h48q88 0 129 31t41 77q0 66 -101 83l22 127h81z" />
    <glyph glyph-name="Eacute" unicode="&#xc9;" horiz-adv-x="1479" 
d="M134 1479h1172l28 -499h-67q-40 236 -126.5 330t-225.5 94h-290q-35 0 -53 -19t-18 -58v-527h127q102 0 165.5 73t68.5 224h69v-685h-69q-5 170 -69.5 243.5t-175.5 73.5h-116v-588q0 -32 21.5 -49t71.5 -17h229q373 0 430 476h72l-25 -551h-1219v75h101q59 0 83 20.5
t24 59.5v1172q0 39 -21 58t-66 19h-121v75zM627 1587l-25 25l171 245q70 102 98.5 124t57.5 22q33 0 58 -24.5t25 -55.5q0 -50 -71 -103z" />
    <glyph glyph-name="Ntilde" unicode="&#xd1;" horiz-adv-x="1669" 
d="M84 1479h353l892 -1162v841q0 127 -58 188q-53 56 -158 58v75h517v-75q-79 0 -118 -22t-68 -80t-29 -127v-1175h-94l-923 1209v-892q0 -121 61 -180.5t189 -61.5v-75h-564v75q106 4 168 69.5t62 160.5v1003l-17 18q-50 54 -71 64q-29 14 -75 14h-67v75zM1197 1888h34
q-1 -106 -58 -167.5t-140 -61.5q-62 0 -205 52q-105 37 -141 37q-74 0 -99 -89h-34q21 226 199 226q66 0 190 -44q126 -45 157 -45q71 0 97 92z" />
    <glyph glyph-name="Odieresis" unicode="&#xd6;" horiz-adv-x="1593" 
d="M784 1510q187 0 350.5 -98.5t256 -275t92.5 -397.5t-93 -399t-255.5 -277.5t-344.5 -99.5q-178 0 -334 97.5t-250.5 279t-94.5 402.5q0 218 91.5 393.5t250.5 275t331 99.5zM800 1433q-195 0 -316 -162t-121 -528q0 -397 124 -549t307 -152q128 0 225 69t154.5 219
t57.5 394q0 266 -54 415.5t-154 221.5t-223 72zM604 1863q43 0 73 -29.5t30 -71.5q0 -43 -30.5 -73.5t-72.5 -30.5t-72 31t-30 74q0 42 30 71t72 29zM989 1860q43 0 73 -29.5t30 -72.5t-30.5 -73.5t-72.5 -30.5q-43 0 -73.5 30.5t-30.5 72.5q0 43 30.5 73t73.5 30z" />
    <glyph glyph-name="Udieresis" unicode="&#xdc;" horiz-adv-x="1669" 
d="M54 1479h683v-75h-137q-55 0 -77 -18t-22 -55v-835q0 -131 23 -198q34 -99 124.5 -158t236.5 -59q202 0 308 104.5t106 279.5v679q0 90 -12.5 136.5t-36 72.5t-59.5 38.5t-120 12.5v75h559v-75h-40q-94 0 -140 -50.5t-46 -146.5v-727q0 -238 -136 -365
q-153 -143 -407 -143q-220 0 -346 62.5t-183 179.5q-43 89 -43 224v893q0 34 -23.5 53.5t-70.5 19.5h-141v75zM682 1863q43 0 73 -29.5t30 -71.5q0 -43 -30.5 -73.5t-72.5 -30.5t-72 31t-30 74q0 42 30 71t72 29zM1067 1860q43 0 73 -29.5t30 -72.5t-30.5 -73.5t-72.5 -30.5
q-43 0 -73.5 30.5t-30.5 72.5q0 43 30.5 73t73.5 30z" />
    <glyph glyph-name="aacute" unicode="&#xe1;" horiz-adv-x="1139" 
d="M1057 103l36 -56q-73 -75 -162 -75q-68 0 -114.5 37t-81.5 130q-95 -100 -167 -133.5t-173 -33.5q-144 0 -219 62t-75 159q0 146 171.5 242.5t456.5 128.5v142q0 76 -61 130t-155 54q-87 0 -150 -36q-45 -27 -45 -53q0 -15 24 -47q29 -40 29 -71q0 -45 -29 -73.5
t-76 -28.5q-50 0 -83.5 34t-33.5 87q0 99 111.5 181t292.5 82q167 0 255 -72q88 -73 88 -177v-512q0 -68 22 -100q22 -33 57 -33q39 0 82 32zM729 498q-254 -35 -360 -114q-79 -60 -79 -170q0 -77 41 -120.5t107 -43.5q118 0 204.5 89.5t86.5 224.5v134zM448 1094l-25 25
l171 245q70 102 98.5 124t57.5 22q33 0 58 -24.5t25 -55.5q0 -50 -71 -103z" />
    <glyph glyph-name="agrave" unicode="&#xe0;" horiz-adv-x="1139" 
d="M1057 103l36 -56q-73 -75 -162 -75q-68 0 -114.5 37t-81.5 130q-95 -100 -167 -133.5t-173 -33.5q-144 0 -219 62t-75 159q0 146 171.5 242.5t456.5 128.5v142q0 76 -61 130t-155 54q-87 0 -150 -36q-45 -27 -45 -53q0 -15 24 -47q29 -40 29 -71q0 -45 -29 -73.5
t-76 -28.5q-50 0 -83.5 34t-33.5 87q0 99 111.5 181t292.5 82q167 0 255 -72q88 -73 88 -177v-512q0 -68 22 -100q22 -33 57 -33q39 0 82 32zM729 498q-254 -35 -360 -114q-79 -60 -79 -170q0 -77 41 -120.5t107 -43.5q118 0 204.5 89.5t86.5 224.5v134zM765 1119l-23 -25
l-278 203q-110 81 -110 132q0 30 25.5 55.5t58.5 25.5q55 0 100 -64z" />
    <glyph glyph-name="acircumflex" unicode="&#xe2;" horiz-adv-x="1139" 
d="M1057 103l36 -56q-73 -75 -162 -75q-68 0 -114.5 37t-81.5 130q-95 -100 -167 -133.5t-173 -33.5q-144 0 -219 62t-75 159q0 146 171.5 242.5t456.5 128.5v142q0 76 -61 130t-155 54q-87 0 -150 -36q-45 -27 -45 -53q0 -15 24 -47q29 -40 29 -71q0 -45 -29 -73.5
t-76 -28.5q-50 0 -83.5 34t-33.5 87q0 99 111.5 181t292.5 82q167 0 255 -72q88 -73 88 -177v-512q0 -68 22 -100q22 -33 57 -33q39 0 82 32zM729 498q-254 -35 -360 -114q-79 -60 -79 -170q0 -77 41 -120.5t107 -43.5q118 0 204.5 89.5t86.5 224.5v134zM499 1496h82
l239 -345h-64l-217 199l-214 -199h-64z" />
    <glyph glyph-name="adieresis" unicode="&#xe4;" horiz-adv-x="1139" 
d="M1057 103l36 -56q-73 -75 -162 -75q-68 0 -114.5 37t-81.5 130q-95 -100 -167 -133.5t-173 -33.5q-144 0 -219 62t-75 159q0 146 171.5 242.5t456.5 128.5v142q0 76 -61 130t-155 54q-87 0 -150 -36q-45 -27 -45 -53q0 -15 24 -47q29 -40 29 -71q0 -45 -29 -73.5
t-76 -28.5q-50 0 -83.5 34t-33.5 87q0 99 111.5 181t292.5 82q167 0 255 -72q88 -73 88 -177v-512q0 -68 22 -100q22 -33 57 -33q39 0 82 32zM729 498q-254 -35 -360 -114q-79 -60 -79 -170q0 -77 41 -120.5t107 -43.5q118 0 204.5 89.5t86.5 224.5v134zM348 1369
q43 0 73 -29.5t30 -71.5q0 -43 -30.5 -73.5t-72.5 -30.5t-72 31t-30 74q0 42 30 71t72 29zM733 1366q43 0 73 -29.5t30 -72.5t-30.5 -73.5t-72.5 -30.5q-43 0 -73.5 30.5t-30.5 72.5q0 43 30.5 73t73.5 30z" />
    <glyph glyph-name="atilde" unicode="&#xe3;" horiz-adv-x="1139" 
d="M1057 103l36 -56q-73 -75 -162 -75q-68 0 -114.5 37t-81.5 130q-95 -100 -167 -133.5t-173 -33.5q-144 0 -219 62t-75 159q0 146 171.5 242.5t456.5 128.5v142q0 76 -61 130t-155 54q-87 0 -150 -36q-45 -27 -45 -53q0 -15 24 -47q29 -40 29 -71q0 -45 -29 -73.5
t-76 -28.5q-50 0 -83.5 34t-33.5 87q0 99 111.5 181t292.5 82q167 0 255 -72q88 -73 88 -177v-512q0 -68 22 -100q22 -33 57 -33q39 0 82 32zM729 498q-254 -35 -360 -114q-79 -60 -79 -170q0 -77 41 -120.5t107 -43.5q118 0 204.5 89.5t86.5 224.5v134zM847 1394h34
q-1 -106 -58 -167.5t-140 -61.5q-62 0 -205 52q-105 37 -141 37q-74 0 -99 -89h-34q21 226 199 226q66 0 190 -44q126 -45 157 -45q71 0 97 92z" />
    <glyph glyph-name="aring" unicode="&#xe5;" horiz-adv-x="1139" 
d="M1057 103l36 -56q-73 -75 -162 -75q-68 0 -114.5 37t-81.5 130q-95 -100 -167 -133.5t-173 -33.5q-144 0 -219 62t-75 159q0 146 171.5 242.5t456.5 128.5v142q0 76 -61 130t-155 54q-87 0 -150 -36q-45 -27 -45 -53q0 -15 24 -47q29 -40 29 -71q0 -45 -29 -73.5
t-76 -28.5q-50 0 -83.5 34t-33.5 87q0 99 111.5 181t292.5 82q167 0 255 -72q88 -73 88 -177v-512q0 -68 22 -100q22 -33 57 -33q39 0 82 32zM729 498q-254 -35 -360 -114q-79 -60 -79 -170q0 -77 41 -120.5t107 -43.5q118 0 204.5 89.5t86.5 224.5v134zM572 1526
q84 0 145 -61t61 -146q0 -87 -61 -148.5t-148 -61.5q-86 0 -147 60.5t-61 146.5q0 87 61.5 148.5t149.5 61.5zM571 1444q-53 0 -90.5 -37.5t-37.5 -90.5q0 -52 37 -88.5t90 -36.5q51 0 88.5 37.5t37.5 89.5q0 53 -36.5 89.5t-88.5 36.5z" />
    <glyph glyph-name="ccedilla" unicode="&#xe7;" horiz-adv-x="909" 
d="M783 278l65 -19q-78 -287 -344 -287q-195 0 -319 129t-124 343q0 248 136 384.5t320 136.5q138 0 228 -76t90 -169q0 -56 -33.5 -92.5t-79.5 -36.5q-45 0 -76 31t-31 75t34 84q16 19 16 30q0 29 -39 56.5t-106 27.5q-122 0 -185 -89q-90 -129 -90 -340q0 -201 80 -304.5
t204 -103.5q171 0 254 220zM505 -39q80 -13 121.5 -54t41.5 -95q0 -85 -70.5 -143t-202.5 -58q-38 0 -104 4v77h48q88 0 129 31t41 77q0 66 -101 83l22 127h81z" />
    <glyph glyph-name="eacute" unicode="&#xe9;" horiz-adv-x="1024" 
d="M946 462h-671q5 -214 80 -302q86 -99 219 -99q196 0 315 223l65 -28q-146 -284 -422 -284q-188 0 -316.5 136t-128.5 348q0 228 126.5 368.5t311.5 140.5q136 0 235 -70t149 -201q35 -92 37 -232zM275 533h406q36 0 56 24.5t20 83.5q0 110 -68.5 187t-161.5 77
q-104 0 -176.5 -93t-75.5 -279zM408 1094l-25 25l171 245q70 102 98.5 124t57.5 22q33 0 58 -24.5t25 -55.5q0 -50 -71 -103z" />
    <glyph glyph-name="egrave" unicode="&#xe8;" horiz-adv-x="1024" 
d="M946 462h-671q5 -214 80 -302q86 -99 219 -99q196 0 315 223l65 -28q-146 -284 -422 -284q-188 0 -316.5 136t-128.5 348q0 228 126.5 368.5t311.5 140.5q136 0 235 -70t149 -201q35 -92 37 -232zM275 533h406q36 0 56 24.5t20 83.5q0 110 -68.5 187t-161.5 77
q-104 0 -176.5 -93t-75.5 -279zM725 1119l-23 -25l-278 203q-110 81 -110 132q0 30 25.5 55.5t58.5 25.5q55 0 100 -64z" />
    <glyph glyph-name="ecircumflex" unicode="&#xea;" horiz-adv-x="1024" 
d="M946 462h-671q5 -214 80 -302q86 -99 219 -99q196 0 315 223l65 -28q-146 -284 -422 -284q-188 0 -316.5 136t-128.5 348q0 228 126.5 368.5t311.5 140.5q136 0 235 -70t149 -201q35 -92 37 -232zM275 533h406q36 0 56 24.5t20 83.5q0 110 -68.5 187t-161.5 77
q-104 0 -176.5 -93t-75.5 -279zM479 1496h82l239 -345h-64l-217 199l-214 -199h-64z" />
    <glyph glyph-name="edieresis" unicode="&#xeb;" horiz-adv-x="1024" 
d="M946 462h-671q5 -214 80 -302q86 -99 219 -99q196 0 315 223l65 -28q-146 -284 -422 -284q-188 0 -316.5 136t-128.5 348q0 228 126.5 368.5t311.5 140.5q136 0 235 -70t149 -201q35 -92 37 -232zM275 533h406q36 0 56 24.5t20 83.5q0 110 -68.5 187t-161.5 77
q-104 0 -176.5 -93t-75.5 -279zM308 1369q43 0 73 -29.5t30 -71.5q0 -43 -30.5 -73.5t-72.5 -30.5t-72 31t-30 74q0 42 30 71t72 29zM693 1366q43 0 73 -29.5t30 -72.5t-30.5 -73.5t-72.5 -30.5q-43 0 -73.5 30.5t-30.5 72.5q0 43 30.5 73t73.5 30z" />
    <glyph glyph-name="iacute" unicode="&#xed;" horiz-adv-x="645" 
d="M49 937l372 11v-806q0 -33 16 -47q23 -20 58 -20h106v-75h-532v75h99q44 0 64.5 21.5t20.5 62.5v590q0 56 -32 84.5t-95 28.5h-77v75zM176 1094l-25 25l171 245q70 102 98.5 124t57.5 22q33 0 58 -24.5t25 -55.5q0 -50 -71 -103z" />
    <glyph glyph-name="igrave" unicode="&#xec;" horiz-adv-x="645" 
d="M49 937l372 11v-806q0 -33 16 -47q23 -20 58 -20h106v-75h-532v75h99q44 0 64.5 21.5t20.5 62.5v590q0 56 -32 84.5t-95 28.5h-77v75zM498 1119l-23 -25l-278 203q-110 81 -110 132q0 30 25.5 55.5t58.5 25.5q55 0 100 -64z" />
    <glyph glyph-name="icircumflex" unicode="&#xee;" horiz-adv-x="645" 
d="M48 937l372 11v-806q0 -33 16 -47q23 -20 58 -20h106v-75h-532v75h99q44 0 64.5 21.5t20.5 62.5v590q0 56 -32 84.5t-95 28.5h-77v75zM283 1496h82l239 -345h-64l-217 199l-214 -199h-64z" />
    <glyph glyph-name="idieresis" unicode="&#xef;" horiz-adv-x="645" 
d="M49 937l372 11v-806q0 -33 16 -47q23 -20 58 -20h106v-75h-532v75h99q44 0 64.5 21.5t20.5 62.5v590q0 56 -32 84.5t-95 28.5h-77v75zM123 1369q43 0 73 -29.5t30 -71.5q0 -43 -30.5 -73.5t-72.5 -30.5t-72 31t-30 74q0 42 30 71t72 29zM508 1366q43 0 73 -29.5t30 -72.5
t-30.5 -73.5t-72.5 -30.5q-43 0 -73.5 30.5t-30.5 72.5q0 43 30.5 73t73.5 30z" />
    <glyph glyph-name="ntilde" unicode="&#xf1;" horiz-adv-x="1251" 
d="M67 937l311 19q19 -88 28 -206q63 102 148.5 153t193.5 51q93 0 156 -36.5t101 -115.5t38 -177v-456q0 -51 23 -72.5t77 -21.5h66v-75h-494v75h47q66 0 92 21t26 63v401q0 131 -40 194q-56 90 -170 90q-113 0 -188.5 -91t-75.5 -237v-347q0 -51 23.5 -72.5t77.5 -21.5h65
v-75h-496v75h65q49 0 74.5 20t25.5 50v605q0 60 -32.5 91t-93.5 31h-48v65zM987 1394h34q-1 -106 -58 -167.5t-140 -61.5q-62 0 -205 52q-105 37 -141 37q-74 0 -99 -89h-34q21 226 199 226q66 0 190 -44q126 -45 157 -45q71 0 97 92z" />
    <glyph glyph-name="oacute" unicode="&#xf3;" horiz-adv-x="1024" 
d="M509 965q189 0 317.5 -136.5t128.5 -359.5q0 -154 -57.5 -262.5t-164 -171.5t-229.5 -63q-182 0 -308.5 138t-126.5 358q0 221 127 359t313 138zM509 894q-112 0 -184 -101.5t-72 -320.5q0 -223 71.5 -326t184.5 -103q117 0 189.5 103t72.5 337q0 217 -71.5 314
t-190.5 97zM399 1094l-25 25l171 245q70 102 98.5 124t57.5 22q33 0 58 -24.5t25 -55.5q0 -50 -71 -103z" />
    <glyph glyph-name="ograve" unicode="&#xf2;" horiz-adv-x="1024" 
d="M509 965q189 0 317.5 -136.5t128.5 -359.5q0 -154 -57.5 -262.5t-164 -171.5t-229.5 -63q-182 0 -308.5 138t-126.5 358q0 221 127 359t313 138zM509 894q-112 0 -184 -101.5t-72 -320.5q0 -223 71.5 -326t184.5 -103q117 0 189.5 103t72.5 337q0 217 -71.5 314
t-190.5 97zM717 1119l-23 -25l-278 203q-110 81 -110 132q0 30 25.5 55.5t58.5 25.5q55 0 100 -64z" />
    <glyph glyph-name="ocircumflex" unicode="&#xf4;" horiz-adv-x="1024" 
d="M509 965q189 0 317.5 -136.5t128.5 -359.5q0 -154 -57.5 -262.5t-164 -171.5t-229.5 -63q-182 0 -308.5 138t-126.5 358q0 221 127 359t313 138zM509 894q-112 0 -184 -101.5t-72 -320.5q0 -223 71.5 -326t184.5 -103q117 0 189.5 103t72.5 337q0 217 -71.5 314
t-190.5 97zM501 1496h82l239 -345h-64l-217 199l-214 -199h-64z" />
    <glyph glyph-name="odieresis" unicode="&#xf6;" horiz-adv-x="1024" 
d="M509 965q189 0 317.5 -136.5t128.5 -359.5q0 -154 -57.5 -262.5t-164 -171.5t-229.5 -63q-182 0 -308.5 138t-126.5 358q0 221 127 359t313 138zM509 894q-112 0 -184 -101.5t-72 -320.5q0 -223 71.5 -326t184.5 -103q117 0 189.5 103t72.5 337q0 217 -71.5 314
t-190.5 97zM339 1369q43 0 73 -29.5t30 -71.5q0 -43 -30.5 -73.5t-72.5 -30.5t-72 31t-30 74q0 42 30 71t72 29zM724 1366q43 0 73 -29.5t30 -72.5t-30.5 -73.5t-72.5 -30.5q-43 0 -73.5 30.5t-30.5 72.5q0 43 30.5 73t73.5 30z" />
    <glyph glyph-name="otilde" unicode="&#xf5;" horiz-adv-x="1024" 
d="M509 965q189 0 317.5 -136.5t128.5 -359.5q0 -154 -57.5 -262.5t-164 -171.5t-229.5 -63q-182 0 -308.5 138t-126.5 358q0 221 127 359t313 138zM509 894q-112 0 -184 -101.5t-72 -320.5q0 -223 71.5 -326t184.5 -103q117 0 189.5 103t72.5 337q0 217 -71.5 314
t-190.5 97zM842 1394h34q-1 -106 -58 -167.5t-140 -61.5q-62 0 -205 52q-105 37 -141 37q-74 0 -99 -89h-34q21 226 199 226q66 0 190 -44q126 -45 157 -45q71 0 97 92z" />
    <glyph glyph-name="uacute" unicode="&#xfa;" horiz-adv-x="1251" 
d="M388 954v-621q0 -114 57.5 -176t148.5 -62q112 0 190.5 90.5t78.5 226.5v351q0 48 -34.5 74.5t-132.5 29.5v70l329 17v-769q0 -53 30 -81.5t84 -28.5h59v-67l-315 -8l-20 185q-84 -99 -169 -149t-172 -50q-127 0 -213 85q-87 84 -87 285v407q0 54 -43 82q-30 20 -123 22
v70zM518 1094l-25 25l171 245q70 102 98.5 124t57.5 22q33 0 58 -24.5t25 -55.5q0 -50 -71 -103z" />
    <glyph glyph-name="ugrave" unicode="&#xf9;" horiz-adv-x="1251" 
d="M388 954v-621q0 -114 57.5 -176t148.5 -62q112 0 190.5 90.5t78.5 226.5v351q0 48 -34.5 74.5t-132.5 29.5v70l329 17v-769q0 -53 30 -81.5t84 -28.5h59v-67l-315 -8l-20 185q-84 -99 -169 -149t-172 -50q-127 0 -213 85q-87 84 -87 285v407q0 54 -43 82q-30 20 -123 22
v70zM799 1119l-23 -25l-278 203q-110 81 -110 132q0 30 25.5 55.5t58.5 25.5q55 0 100 -64z" />
    <glyph glyph-name="ucircumflex" unicode="&#xfb;" horiz-adv-x="1251" 
d="M388 954v-621q0 -114 57.5 -176t148.5 -62q112 0 190.5 90.5t78.5 226.5v351q0 48 -34.5 74.5t-132.5 29.5v70l329 17v-769q0 -53 30 -81.5t84 -28.5h59v-67l-315 -8l-20 185q-84 -99 -169 -149t-172 -50q-127 0 -213 85q-87 84 -87 285v407q0 54 -43 82q-30 20 -123 22
v70zM585 1496h82l239 -345h-64l-217 199l-214 -199h-64z" />
    <glyph glyph-name="udieresis" unicode="&#xfc;" horiz-adv-x="1251" 
d="M388 954v-621q0 -114 57.5 -176t148.5 -62q112 0 190.5 90.5t78.5 226.5v351q0 48 -34.5 74.5t-132.5 29.5v70l329 17v-769q0 -53 30 -81.5t84 -28.5h59v-67l-315 -8l-20 185q-84 -99 -169 -149t-172 -50q-127 0 -213 85q-87 84 -87 285v407q0 54 -43 82q-30 20 -123 22
v70zM425 1369q43 0 73 -29.5t30 -71.5q0 -43 -30.5 -73.5t-72.5 -30.5t-72 31t-30 74q0 42 30 71t72 29zM810 1366q43 0 73 -29.5t30 -72.5t-30.5 -73.5t-72.5 -30.5q-43 0 -73.5 30.5t-30.5 72.5q0 43 30.5 73t73.5 30z" />
    <glyph glyph-name="dagger" unicode="&#x2020;" horiz-adv-x="1024" 
d="M552 953q78 2 167 34q106 39 147 39q53 0 85 -30.5t32 -76.5q0 -45 -31.5 -73.5t-87.5 -28.5q-47 0 -145 37q-91 33 -167 35q8 -193 128 -312q-122 -369 -128 -976h-63q0 308 -43 608q-30 214 -88 368q121 113 131 312q-75 -1 -156 -30q-116 -42 -161 -42
q-52 0 -83.5 29.5t-31.5 74.5q0 43 32.5 74t81.5 31t154 -39q90 -33 164 -34q-2 118 -38 241q-32 112 -37.5 137t-5.5 51q0 63 31.5 99t81.5 36t82 -36.5t32 -97.5q0 -24 -5 -50q-2 -13 -25 -88q-32 -107 -41 -159t-12 -133z" />
    <glyph glyph-name="degree" unicode="&#xb0;" horiz-adv-x="819" 
d="M410 1413q129 0 220 -91.5t91 -220.5t-91 -220.5t-220 -91.5q-130 0 -221 91.5t-91 220.5t91 220.5t221 91.5zM410 1292q-79 0 -135 -56t-56 -135t56 -135t135 -56t134.5 56t55.5 135t-55.5 135t-134.5 56z" />
    <glyph glyph-name="cent" unicode="&#xa2;" horiz-adv-x="1139" 
d="M801 1479h77l-140 -517q120 -22 189 -91t69 -146q0 -58 -34.5 -95.5t-84.5 -37.5q-46 0 -79 32t-33 75q0 32 28 69q24 33 24 48q0 19 -22 38q-30 25 -76 35l-214 -788q77 -42 155 -42q94 0 165 50t128 172l66 -23q-101 -286 -391 -286q-85 0 -152 28l-108 -394h-74
l112 411q-96 54 -146 112t-80.5 142t-30.5 177q0 143 69.5 265t183.5 188.5t263 66.5zM442 150l202 745q-133 -2 -214.5 -109.5t-81.5 -328.5q0 -188 94 -307z" />
    <glyph glyph-name="sterling" unicode="&#xa3;" horiz-adv-x="1139" 
d="M527 746h370v-85h-352q12 -82 12 -166q0 -141 -43 -247q203 -84 315 -84q57 0 93.5 39t56.5 139l68 -15q-27 -177 -106.5 -266t-171.5 -89q-60 0 -130 30t-196 126q-62 -78 -132 -117t-130 -39q-90 0 -150 56t-60 140q0 81 59 134t154 53q78 0 235 -73l1 34
q0 179 -77 345h-288v85h247q-63 161 -63 289q0 161 116.5 269.5t306.5 108.5q148 0 235 -77.5t87 -189.5q0 -71 -39 -116t-92 -45q-44 0 -73 33t-29 86q0 51 40 86q39 35 46 45q5 7 5 17q0 33 -45 61.5t-137 28.5q-112 0 -180 -61.5t-68 -150.5q0 -43 10 -85t50 -143
q34 -86 55 -156zM389 166q-100 72 -139.5 89t-76.5 17q-58 0 -93.5 -32.5t-35.5 -83.5q0 -50 38 -84t99 -34q117 0 208 128z" />
    <glyph glyph-name="section" unicode="&#xa7;" horiz-adv-x="1024" 
d="M689 198q131 -135 131 -276q0 -138 -93 -227t-251 -89q-124 0 -200 65.5t-76 152.5q0 52 31 84.5t79 32.5q41 0 68 -27t27 -68t-33 -74q-31 -31 -31 -45q0 -17 29 -33q37 -22 98 -22q94 0 153.5 54.5t59.5 131.5q0 62 -37.5 120t-202.5 196q-179 150 -243.5 236.5
t-64.5 196.5q0 89 42.5 163.5t148.5 154.5q-117 134 -117 272q0 132 97.5 226t243.5 94q130 0 205 -62t75 -150q0 -59 -30 -93t-73 -34q-44 0 -75 30t-31 72q0 43 39 82q28 27 28 38q0 15 -26 29q-42 21 -104 21q-92 0 -151 -53t-59 -127q0 -60 40.5 -125t211.5 -217
q140 -125 188 -183t69.5 -116t21.5 -117q0 -180 -188 -314zM375 874q-123 -93 -123 -190q0 -51 37 -107t173 -170q113 -95 177 -160q75 61 97.5 101.5t22.5 90.5q0 36 -17 72q-27 54 -99 125z" />
    <glyph glyph-name="bullet" unicode="&#x2022;" horiz-adv-x="1241" 
d="M620 998q87 0 149 -62t62 -149t-61.5 -149t-149.5 -62q-87 0 -149 62t-62 149q0 88 62 149.5t149 61.5z" />
    <glyph glyph-name="paragraph" unicode="&#xb6;" horiz-adv-x="1241" 
d="M1111 1479v-39h-42q-55 0 -78 -15.5t-32.5 -47t-9.5 -146.5v-1616h-75v1807h-193v-1807h-76v1081q-198 9 -294 52t-150 133t-54 209q0 120 49 194q64 100 163 147.5t255 47.5h537z" />
    <glyph glyph-name="germandbls" unicode="&#xdf;" horiz-adv-x="1176" 
d="M785 881q151 -33 229.5 -137t78.5 -271q0 -133 -55 -252.5t-134 -177t-165 -57.5q-85 0 -137.5 49.5t-52.5 123.5q0 52 28 85t67 33q36 0 63 -27.5t27 -64.5q0 -36 -31 -69q-17 -18 -17 -31t11 -21.5t33 -8.5q68 0 118.5 84t50.5 292q0 238 -69.5 325t-225.5 91v63
q52 0 119.5 21.5t93.5 63.5q37 60 37 165q0 149 -55 214t-159 65q-120 0 -172 -65q-69 -83 -69 -236v-959q0 -55 21.5 -78.5t70.5 -25.5v-75h-429v75h67q54 0 76.5 17.5t22.5 47.5v962q0 195 106 305t291 110q184 0 291.5 -96t107.5 -234q0 -92 -54 -167t-185 -139z" />
    <glyph glyph-name="registered" unicode="&#xae;" horiz-adv-x="1509" 
d="M754 1413q193 0 360 -96.5t263.5 -264t96.5 -360.5t-96.5 -360t-263.5 -263.5t-360 -96.5q-192 0 -359 96.5t-263.5 263.5t-96.5 360t96.5 360.5t263.5 264t359 96.5zM754 1350q-176 0 -328.5 -88t-240.5 -240.5t-88 -328.5t88 -328.5t240.5 -240.5t328.5 -88t328.5 88
t240.5 240.5t88 328.5q0 177 -88 329t-240.5 240t-328.5 88zM356 1136h391q143 0 222.5 -65t79.5 -164q0 -85 -56 -141t-169 -83l212 -303q37 -52 62.5 -69t59.5 -19v-34h-186l-298 411h-77v-289q0 -51 22.5 -69.5t96.5 -18.5v-34h-372v34q49 0 69.5 12t30.5 36q6 15 6 92
v568q0 58 -19.5 78t-74.5 21v37zM597 713h30q134 0 196.5 50t62.5 135q0 81 -58 136.5t-145 55.5q-39 0 -86 -15v-362z" />
    <glyph glyph-name="copyright" unicode="&#xa9;" horiz-adv-x="1509" 
d="M754 1413q193 0 360 -96.5t263.5 -264t96.5 -360.5t-96.5 -360t-263.5 -263.5t-360 -96.5q-192 0 -359 96.5t-263.5 263.5t-96.5 360t96.5 360.5t263.5 264t359 96.5zM754 1350q-176 0 -328.5 -88t-240.5 -240.5t-88 -328.5t88 -328.5t240.5 -240.5t328.5 -88t328.5 88
t240.5 240.5t88 328.5q0 177 -88 329t-240.5 240t-328.5 88zM1110 1155l20 -283h-40q-72 239 -308 239q-147 0 -235.5 -102t-88.5 -300q0 -203 91 -307t243 -104q199 0 318 164l38 -19q-140 -206 -390 -206q-132 0 -240 59.5t-168.5 165t-60.5 229.5q0 193 143 329t356 136
q79 0 194 -38q25 -8 37 -8q17 0 28 8.5t22 36.5h41z" />
    <glyph glyph-name="trademark" unicode="&#x2122;" horiz-adv-x="2048" 
d="M59 1479h739l22 -203h-35q-11 77 -55 111q-41 31 -142 31h-75v-610q0 -64 21 -86t86 -25v-36h-380v36q65 4 83.5 27.5t18.5 105.5v588h-77q-97 0 -138 -33q-41 -32 -55 -109h-34zM1180 1479l277 -580l268 580h283v-37q-70 -3 -91 -24.5t-21 -82.5v-505q0 -86 20 -108.5
t92 -24.5v-36h-403v36q60 2 80 12.5t30 33.5t10 87v498l-311 -667h-33l-312 658v-513q0 -63 21.5 -86t73.5 -23h36v-36h-310v36q72 1 93.5 23.5t21.5 96.5v511q0 71 -21.5 92t-93.5 22v37h290z" />
    <glyph glyph-name="acute" unicode="&#xb4;" horiz-adv-x="682" 
d="M228 1094l-25 25l171 245q70 102 98.5 124t57.5 22q33 0 58 -24.5t25 -55.5q0 -50 -71 -103z" />
    <glyph glyph-name="dieresis" unicode="&#xa8;" horiz-adv-x="682" 
d="M148 1369q43 0 73 -29.5t30 -71.5q0 -43 -30.5 -73.5t-72.5 -30.5t-72 31t-30 74q0 42 30 71t72 29zM533 1366q43 0 73 -29.5t30 -72.5t-30.5 -73.5t-72.5 -30.5q-43 0 -73.5 30.5t-30.5 72.5q0 43 30.5 73t73.5 30z" />
    <glyph glyph-name="notequal" unicode="&#x2260;" horiz-adv-x="1124" 
d="M25 818h602l210 533h80l-206 -533h388v-94h-425l-144 -370h569v-93h-605l-211 -531h-80l209 531h-387v93h423l145 370h-568v94z" />
    <glyph glyph-name="AE" unicode="&#xc6;" horiz-adv-x="2048" 
d="M589 1479h1285l30 -511h-70q-53 436 -385 436h-182q-42 0 -63 -20.5t-21 -54.5v-529h90q225 0 238 300h68v-688h-68q-4 172 -67 244.5t-177 72.5h-84v-584q0 -35 18 -50q24 -20 66 -20h192q109 0 191.5 49.5t138.5 150.5t85 291h69l-21 -566h-1182v75h144q43 0 66 21.5
t23 54.5v488h-419l-196 -362q-25 -47 -25 -96t32 -77.5t86 -28.5h26v-75h-434v75q61 2 109.5 42t118.5 169l544 993q24 44 24 78q0 23 -17 35t-65 12h-168v75zM973 1404l-384 -686h384v686z" />
    <glyph glyph-name="Oslash" unicode="&#xd8;" horiz-adv-x="1593" 
d="M279 222q-168 224 -168 519q0 220 91.5 395.5t250.5 274.5t335 99q125 0 249.5 -50t215.5 -139l141 158h99l-190 -213q180 -226 180 -526q0 -222 -93 -399.5t-255.5 -277.5t-344.5 -100q-127 0 -247.5 52t-215.5 150l-146 -165h-99zM406 366l744 838q-49 106 -144 167.5
t-207 61.5q-194 0 -315.5 -162.5t-121.5 -534.5q0 -219 44 -370zM1181 1128l-746 -842q47 -115 142.5 -179.5t216.5 -64.5q128 0 225 69t154.5 219t57.5 396q0 255 -50 402z" />
    <glyph glyph-name="infinity" unicode="&#x221e;" horiz-adv-x="1460" 
d="M653 667q68 156 149 216.5t221 60.5q161 0 272 -116t111 -301q0 -183 -108 -301.5t-241 -118.5q-99 0 -184 73q-56 48 -153 213q-64 -124 -140 -178.5t-184 -54.5q-144 0 -243.5 103t-99.5 266q0 165 92 266t215 101q86 0 152 -44.5t141 -184.5zM749 464
q75 -156 148 -209.5t164 -53.5q123 0 205.5 88.5t82.5 237.5q0 147 -87 243t-195 96q-69 0 -120.5 -35t-93.5 -112q-24 -45 -104 -255zM624 590q-49 110 -112 162t-155 52q-106 0 -177.5 -74.5t-71.5 -199.5q0 -133 70.5 -212.5t159.5 -79.5q95 0 168 85q47 56 118 267z" />
    <glyph glyph-name="plusminus" unicode="&#xb1;" horiz-adv-x="1124" 
d="M8 141v81h498v418h-498v82h498v497h80v-497h500v-82h-500v-418h501l-1 -81h-1078z" />
    <glyph glyph-name="lessequal" unicode="&#x2264;" horiz-adv-x="1124" 
d="M1098 246l-1073 456v83l1073 454v-102l-950 -393l950 -396v-102zM24 -70h1076v-93h-1076v93z" />
    <glyph glyph-name="greaterequal" unicode="&#x2265;" horiz-adv-x="1124" 
d="M25 1239l1073 -456v-83l-1073 -454v102l950 393l-950 396v102zM24 -70h1076v-93h-1076v93z" />
    <glyph glyph-name="yen" unicode="&#xa5;" horiz-adv-x="1442" 
d="M579 677l-364 558q-31 47 -68.5 64.5t-125.5 19.5v68h615v-68h-68q-85 0 -111 -13.5t-26 -37.5q0 -25 14 -45l357 -546l256 465q17 31 17 69q0 49 -32.5 78.5t-91.5 29.5h-65v68h536v-68q-93 0 -145.5 -32t-103.5 -122l-270 -488h398v-75h-452v-227h452v-75h-452v-161
q0 -31 20 -45q27 -19 82 -19h121v-75h-645v75h127q52 0 74.5 17t22.5 47v161h-485v75h485v227h-485v75h413z" />
    <glyph glyph-name="mu1" unicode="&#xb5;" horiz-adv-x="1180" 
d="M196 916h164v-533q0 -145 18 -198q13 -40 48 -65t76 -25q59 0 118 33.5t118 100.5v687h165v-654q0 -100 8 -131q7 -24 24 -37.5t36 -13.5q26 0 44 22q26 31 37 102h42q-9 -121 -63 -176.5t-135 -55.5q-78 0 -120 58q-30 43 -38 132q-87 -102 -162 -146t-152 -44
q-53 0 -92 21q-28 16 -63 64q-1 -31 -1 -46q0 -79 34 -239q13 -61 13 -104q0 -48 -28 -79t-66 -31q-37 0 -62 29t-25 80q0 46 29 165q20 80 22 104q12 103 12 179q0 5 -1 75v726z" />
    <glyph glyph-name="partialdiff" unicode="&#x2202;" horiz-adv-x="1012" 
d="M929 717q12 113 12 186q0 180 -94.5 278.5t-251.5 98.5q-106 0 -176 -40t-125 -119h-46q77 158 166 229.5t215 71.5q90 0 175.5 -49t138 -158t52.5 -295q0 -354 -154 -636q-173 -315 -438 -315q-156 0 -247.5 90t-91.5 245q0 117 46.5 229.5t117.5 190.5t158 124
q113 60 230 60q82 0 148.5 -31.5t109.5 -76.5q27 -28 55 -83zM912 628q-39 111 -116.5 168t-170.5 57q-90 0 -177 -62t-151 -217.5t-64 -310.5q0 -114 55 -175.5t140 -61.5q123 0 251 130q163 166 233 472z" />
    <glyph glyph-name="summation" unicode="&#x2211;" horiz-adv-x="1460" 
d="M1356 -385h-1313v36l669 911l-669 897v37h1278l27 -336h-40q-15 135 -76 195.5t-173 60.5h-740l562 -768l-629 -857h818q87 0 166 32q51 21 85.5 67.5t58.5 147.5l40 -8z" />
    <glyph glyph-name="product" unicode="&#x220f;" horiz-adv-x="1685" 
d="M1240 1418h-795v-1611q0 -83 37 -119t125 -36h36v-37h-597v37h35q93 0 128 38t35 117v1497q0 83 -37 119t-126 36h-35v37h1594v-37h-35q-92 0 -127 -38t-35 -117v-1497q0 -83 37 -119t125 -36h35v-37h-597v37h35q93 0 127.5 38t34.5 117v1611z" />
    <glyph glyph-name="pi1" unicode="&#xf010;" horiz-adv-x="1124" 
d="M1024 916v-146h-232q-17 -104 -28 -240.5t-11 -217.5q0 -90 35.5 -131.5t89.5 -41.5q44 0 74 28t36 83h36q-18 -150 -76 -214t-130 -64q-74 0 -124.5 69.5t-50.5 276.5q0 91 11 204q17 183 27 248h-235l-15 -233q-12 -149 -38.5 -298t-55.5 -202q-20 -38 -41.5 -51.5
t-43.5 -13.5q-39 0 -64.5 24.5t-25.5 58.5q0 28 10 52q6 15 55 83q33 45 51 97t33 169q3 21 24 314h-29q-70 0 -114 -28t-94 -113h-36q32 120 81 185t95 83.5t148 18.5h638z" />
    <glyph glyph-name="integral" unicode="&#x222b;" horiz-adv-x="561" 
d="M200 895l18 581q8 154 50 255q27 67 74 99.5t93 32.5q50 0 87.5 -33.5t37.5 -73.5q0 -47 -26.5 -75.5t-65.5 -28.5q-35 0 -76 36q-23 20 -40 20t-28.5 -14.5t-11.5 -49.5q0 -41 9 -145q37 -411 37 -663q0 -70 -16 -590q-8 -295 -90 -399q-54 -67 -134 -67q-52 0 -85 34
t-33 87q0 45 25.5 72t64.5 27q40 0 69 -32t49 -32q17 0 28 14t11 47q0 42 -9 120q-17 143 -26 338q-12 249 -12 440z" />
    <glyph glyph-name="ordfeminine" unicode="&#xaa;" horiz-adv-x="684" 
d="M646 988l35 -48q-54 -38 -104 -38q-45 0 -76.5 19.5t-56.5 69.5q-47 -44 -100 -66.5t-113 -22.5q-98 0 -149 39.5t-51 99.5q0 74 76 126q110 75 326 102v79q0 44 -34 74.5t-89 30.5q-51 0 -90 -21q-24 -13 -24 -27q0 -8 11 -22q24 -27 24 -49q0 -28 -22 -47.5t-59 -19.5
q-38 0 -63 22.5t-25 56.5q0 60 75 112t200 52q108 0 169 -45q60 -46 60 -110v-300q0 -45 11 -63t29 -18q12 0 40 14zM433 1215q-143 -17 -210 -66q-45 -32 -45 -95q0 -44 22.5 -68.5t58.5 -24.5q62 0 118 48t56 134v72z" />
    <glyph glyph-name="ordmasculine" unicode="&#xba;" horiz-adv-x="614" 
d="M305 1510q129 0 212.5 -85t83.5 -218q0 -137 -84.5 -221t-214.5 -84q-123 0 -206 85.5t-83 218.5t83.5 218.5t208.5 85.5zM305 1455q-65 0 -106.5 -59.5t-41.5 -187.5q0 -130 42 -190.5t106 -60.5q68 0 110 60.5t42 196.5q0 127 -41.5 184t-110.5 57z" />
    <glyph glyph-name="Ohm" unicode="&#x2126;" horiz-adv-x="1573" 
d="M645 290l30 -290h-604v334h34q20 -79 47 -101t99 -22h303v29q-158 47 -248 118t-143 191.5t-53 244.5q0 152 81 293.5t236 218t360 76.5q204 0 359 -76t236 -217.5t81 -294.5q0 -125 -53 -245t-142.5 -191t-248.5 -118v-29h303q73 0 100 22t47 101h34v-334h-605l31 290
q123 45 185 131q104 145 104 376q0 256 -115.5 386t-310.5 130q-205 0 -306 -114q-130 -146 -130 -401q0 -146 40.5 -256.5t112.5 -175.5q48 -44 136 -76z" />
    <glyph glyph-name="ae" unicode="&#xe6;" horiz-adv-x="1630" 
d="M861 855q139 110 279 110q108 0 201.5 -59t145.5 -167.5t57 -281.5h-645q1 -132 39.5 -219t104 -131.5t139.5 -44.5q83 0 160.5 51.5t141.5 164.5l60 -34q-68 -135 -174 -203.5t-230 -68.5q-213 0 -357 215q-94 -120 -186 -167.5t-206 -47.5q-128 0 -203.5 64t-75.5 163
q0 127 131 223t487 148v97q0 110 -57 166.5t-166 56.5q-88 0 -142 -32q-42 -25 -42 -54q0 -15 20 -37q35 -38 35 -81q0 -46 -30 -74.5t-80 -28.5q-48 0 -79.5 32.5t-31.5 85.5q0 103 103.5 183.5t279.5 80.5q90 0 164.5 -25t156.5 -85zM899 539h373q45 0 64 21.5t19 79.5
q0 109 -65 182.5t-157 73.5q-103 0 -168.5 -86.5t-65.5 -270.5zM730 496q-243 -33 -353 -114q-80 -59 -80 -157q0 -73 44 -118.5t113 -45.5q118 0 197 85.5t79 232.5v117z" />
    <glyph glyph-name="oslash" unicode="&#xf8;" horiz-adv-x="1024" 
d="M179 129q-110 134 -110 340q0 219 127 357.5t309 138.5q169 0 289 -105l65 77h91l-107 -127q112 -136 112 -341q0 -154 -57.5 -262t-164 -171.5t-229.5 -63.5q-155 0 -276 107l-66 -79h-91zM281 249l435 519q-66 126 -208 126q-112 0 -183.5 -102t-71.5 -324
q0 -125 28 -219zM745 695l-436 -519q65 -133 200 -133q117 0 189.5 103.5t72.5 338.5q0 123 -26 210z" />
    <glyph glyph-name="questiondown" unicode="&#xbf;" horiz-adv-x="909" 
d="M508 903q-50 0 -85 35t-35 84q0 51 35.5 87t84.5 36q51 0 86 -35.5t35 -88.5q0 -49 -35.5 -83.5t-85.5 -34.5zM485 687h52q0 -121 -12.5 -187.5t-31.5 -105.5t-100 -145q-62 -81 -88 -153.5t-26 -159.5q0 -118 66.5 -190.5t162.5 -72.5q83 0 138.5 41t55.5 85
q0 23 -38 53q-60 46 -60 101q0 47 31 79t78 32q56 0 94.5 -45t38.5 -118q0 -115 -105.5 -206.5t-266.5 -91.5q-166 0 -273.5 102t-107.5 249q0 67 18.5 122.5t49.5 95.5t152 149q109 99 138.5 162.5t33.5 203.5z" />
    <glyph glyph-name="exclamdown" unicode="&#xa1;" horiz-adv-x="606" 
d="M311 903q-51 0 -86.5 36t-35.5 86q0 49 36 84.5t86 35.5t85.5 -35t35.5 -84q0 -53 -35 -88t-86 -35zM285 685h53q1 -180 10 -269q15 -147 50 -347q40 -223 40 -291q0 -88 -35 -131.5t-92 -43.5q-59 0 -93 41.5t-34 129.5q0 74 40 295q35 195 47.5 323t13.5 293z" />
    <glyph glyph-name="logicalnot" unicode="&#xac;" horiz-adv-x="1241" 
d="M69 1001h1104v-608h-132v474h-972v134z" />
    <glyph glyph-name="radical" unicode="&#x221a;" horiz-adv-x="1124" 
d="M1050 1869h74l-312 -1947l-496 1021l-198 -91l-34 64l301 151l405 -823z" />
    <glyph glyph-name="florin" unicode="&#x192;" horiz-adv-x="1139" 
d="M772 984h185l-17 -69h-181q-58 -298 -164.5 -686t-206 -495.5t-204.5 -107.5q-63 0 -98 31t-35 80q0 39 24 65t57 26q28 0 47.5 -18t19.5 -41q0 -18 -13 -36t-13 -25q0 -10 8 -15t24 -5q51 0 95.5 60.5t80.5 249.5q85 452 208 917h-184l16 69q100 4 130.5 16t46.5 35
q22 31 58 137q75 216 142.5 280t161.5 64q69 0 108 -33t39 -85q0 -35 -20 -57t-48 -22q-29 0 -48.5 18t-19.5 42q0 16 13 37q10 18 10 26q0 13 -10 19.5t-31 6.5q-36 0 -68 -28.5t-50 -106.5q-31 -134 -63 -349z" />
    <glyph glyph-name="approxequal" unicode="&#x2248;" horiz-adv-x="1124" 
d="M1052 1038h43q-3 -126 -72.5 -199.5t-169.5 -73.5q-46 0 -98 15t-275 106q-156 64 -221 64q-70 0 -118.5 -43.5t-67.5 -139.5h-43q4 89 33.5 147.5t86 92t112.5 33.5q43 0 89 -13q104 -30 291 -110q97 -42 156 -58q30 -8 67 -8q75 0 126 48t61 139zM1052 547h43
q-3 -127 -72.5 -200.5t-169.5 -73.5q-46 0 -150 31l-223 91q-156 63 -221 63q-70 0 -118.5 -43.5t-67.5 -139.5h-43q4 89 33 147.5t85.5 92.5t112.5 34q43 0 89 -13q105 -31 292 -111q98 -42 156 -57q30 -8 67 -8q75 0 126 47.5t61 139.5z" />
    <glyph glyph-name="Delta" unicode="&#x2206;" horiz-adv-x="1253" 
d="M1226 0h-1200l628 1387zM990 82l-399 967l-440 -967h839z" />
    <glyph glyph-name="guillemotleft" unicode="&#xab;" horiz-adv-x="872" 
d="M324 995h90l-204 -436l204 -434h-90l-325 434zM731 995h90l-204 -436l204 -434h-90l-317 434z" />
    <glyph glyph-name="guillemotright" unicode="&#xbb;" horiz-adv-x="872" 
d="M480 995l325 -436l-325 -434h-90l203 434l-203 436h90zM72 995l318 -436l-318 -434h-89l204 434l-204 436h89z" />
    <glyph glyph-name="ellipsis" unicode="&#x2026;" horiz-adv-x="2048" 
d="M342 252q57 0 97.5 -41t40.5 -99q0 -57 -42 -98.5t-99 -41.5q-54 0 -95 41.5t-41 98.5q0 58 40.5 99t98.5 41zM1025 252q58 0 98.5 -41t40.5 -99q0 -57 -42 -98.5t-99 -41.5q-55 0 -95.5 41.5t-40.5 98.5q0 58 40.5 99t97.5 41zM1706 248q58 0 98 -39.5t40 -98.5
q0 -58 -40 -98t-97 -40t-97 40t-40 98t39.5 98t96.5 40z" />
    <glyph glyph-name="nonbreakingspace" unicode="&#xa0;" horiz-adv-x="588" 
 />
    <glyph glyph-name="Agrave" unicode="&#xc0;" horiz-adv-x="1479" 
d="M715 1510h67l531 -1353q32 -82 131 -82h46v-75h-590v75h47q92 0 130 20q26 14 26 43q0 17 -7 36l-123 314h-584l-69 -180q-27 -72 -27 -114q0 -49 45.5 -84t132.5 -35h50v-75h-536v75q86 0 136 37.5t92 142.5zM686 1225l-265 -659h523zM939 1612l-23 -25l-278 203
q-110 81 -110 132q0 30 25.5 55.5t58.5 25.5q55 0 100 -64z" />
    <glyph glyph-name="Atilde" unicode="&#xc3;" horiz-adv-x="1479" 
d="M715 1510h67l531 -1353q32 -82 131 -82h46v-75h-590v75h47q92 0 130 20q26 14 26 43q0 17 -7 36l-123 314h-584l-69 -180q-27 -72 -27 -114q0 -49 45.5 -84t132.5 -35h50v-75h-536v75q86 0 136 37.5t92 142.5zM686 1225l-265 -659h523zM1045 1888h34q-1 -106 -58 -167.5
t-140 -61.5q-62 0 -205 52q-105 37 -141 37q-74 0 -99 -89h-34q21 226 199 226q66 0 190 -44q126 -45 157 -45q71 0 97 92z" />
    <glyph glyph-name="Otilde" unicode="&#xd5;" horiz-adv-x="1593" 
d="M784 1510q187 0 350.5 -98.5t256 -275t92.5 -397.5t-93 -399t-255.5 -277.5t-344.5 -99.5q-178 0 -334 97.5t-250.5 279t-94.5 402.5q0 218 91.5 393.5t250.5 275t331 99.5zM800 1433q-195 0 -316 -162t-121 -528q0 -397 124 -549t307 -152q128 0 225 69t154.5 219
t57.5 394q0 266 -54 415.5t-154 221.5t-223 72zM1103 1888h34q-1 -106 -58 -167.5t-140 -61.5q-62 0 -205 52q-105 37 -141 37q-74 0 -99 -89h-34q21 226 199 226q66 0 190 -44q126 -45 157 -45q71 0 97 92z" />
    <glyph glyph-name="OE" unicode="&#x152;" horiz-adv-x="2048" 
d="M1889 1479l26 -511h-70q-30 183 -73.5 264t-117 126.5t-161.5 45.5h-226q-34 0 -51 -19t-17 -58v-527h84q113 0 172 65t77 234h66v-687h-66q-19 317 -249 317h-84v-596q0 -27 20.5 -42.5t63.5 -15.5h210q105 0 174.5 43t122.5 142.5t90 302.5h69l-26 -563h-858
q-106 0 -261 -12q-75 -6 -114 -6q-247 0 -434 211q-188 210 -188 522q0 336 190.5 555.5t446.5 219.5l148 -8l87 -3h949zM989 1231q0 79 -61.5 130.5t-185.5 51.5q-120 0 -215 -70t-152 -217.5t-57 -387.5q0 -346 130 -522q116 -158 299 -158q121 0 181.5 60.5t60.5 186.5
v926z" />
    <glyph glyph-name="oe" unicode="&#x153;" horiz-adv-x="1706" 
d="M895 783q78 98 159.5 140t176.5 42q114 0 207.5 -59t148.5 -172.5t56 -273.5h-652q7 -210 83.5 -302.5t202.5 -92.5q185 0 309 218l63 -27q-79 -149 -182 -216.5t-230 -67.5q-105 0 -194 47.5t-148 134.5q-71 -91 -162 -136.5t-202 -45.5q-193 0 -322.5 137t-129.5 355
q0 223 131 362t323 139q209 0 362 -182zM991 542h390q38 0 54.5 19.5t16.5 74.5q0 114 -63.5 186.5t-154.5 72.5q-98 0 -165 -83t-78 -270zM536 893q-115 0 -184 -96q-84 -115 -84 -330q0 -213 77 -316.5t191 -103.5q113 0 189.5 103.5t76.5 310.5q0 147 -37 245
t-97.5 142.5t-131.5 44.5z" />
    <glyph glyph-name="endash" unicode="&#x2013;" horiz-adv-x="1139" 
d="M-12 542h1163v-102h-1163v102z" />
    <glyph glyph-name="emdash" unicode="&#x2014;" horiz-adv-x="2048" 
d="M-12 542h2072v-102h-2072v102z" />
    <glyph glyph-name="quotedblleft" unicode="&#x201c;" horiz-adv-x="797" 
d="M327 1521l32 -42q-99 -71 -145.5 -141t-46.5 -121q0 -34 24 -34l10 1q24 6 40 6q44 0 75.5 -32.5t31.5 -80.5q0 -53 -33.5 -90.5t-77.5 -37.5q-64 0 -113 54.5t-49 141.5q0 209 252 376zM737 1521l33 -42q-99 -71 -145.5 -141t-46.5 -121q0 -34 23 -34l10 1q25 6 40 6
q45 0 76.5 -32.5t31.5 -80.5q0 -53 -34 -90.5t-77 -37.5q-65 0 -113.5 54.5t-48.5 141.5q0 209 251 376z" />
    <glyph glyph-name="quotedblright" unicode="&#x201d;" horiz-adv-x="797" 
d="M45 943l-32 45q99 71 145.5 140.5t46.5 119.5q0 17 -5.5 25.5t-17.5 8.5l-10 -2q-25 -6 -40 -6q-45 0 -76.5 32.5t-31.5 78.5q0 51 33.5 88t77.5 37q64 0 113 -54t49 -139q0 -208 -252 -374zM456 943l-32 45q99 71 145.5 140.5t46.5 118.5q0 18 -6 26.5t-18 8.5l-10 -2
q-24 -6 -40 -6q-44 0 -75.5 32t-31.5 79q0 51 33.5 88t77.5 37q64 0 113 -54t49 -139q0 -209 -252 -374z" />
    <glyph glyph-name="quoteleft" unicode="&#x2018;" horiz-adv-x="418" 
d="M326 1521l32 -42q-99 -71 -145.5 -141t-46.5 -121q0 -34 24 -34l10 1q24 6 40 6q44 0 75.5 -32.5t31.5 -80.5q0 -53 -33.5 -90.5t-77.5 -37.5q-64 0 -113 54.5t-49 141.5q0 209 252 376z" />
    <glyph glyph-name="quoteright" unicode="&#x2019;" horiz-adv-x="418" 
d="M95 943l-32 45q99 71 145.5 140.5t46.5 119.5q0 17 -5.5 25.5t-17.5 8.5l-10 -2q-24 -6 -41 -6q-44 0 -75.5 32.5t-31.5 78.5q0 51 33.5 88t77.5 37q64 0 113 -54t49 -139q0 -101 -57.5 -192.5t-194.5 -181.5z" />
    <glyph glyph-name="divide" unicode="&#xf7;" horiz-adv-x="1124" 
d="M562 1075q36 0 61.5 -25.5t25.5 -61.5t-25.5 -61.5t-62.5 -25.5q-36 0 -61.5 25.5t-25.5 61.5t25.5 61.5t62.5 25.5zM1101 640h-1078v82h1078v-82zM562 455q37 0 62.5 -26t25.5 -62t-26 -62t-62 -26t-62 26t-26 62t25.5 62t62.5 26z" />
    <glyph glyph-name="lozenge" unicode="&#x25ca;" horiz-adv-x="1012" 
d="M549 1422l418 -713l-418 -709h-111l-391 709l391 713h111zM495 1325l-340 -616l340 -615l359 615z" />
    <glyph glyph-name="ydieresis" unicode="&#xff;" horiz-adv-x="1100" 
d="M46 937h449v-68h-42q-59 0 -80.5 -15.5t-21.5 -44.5q0 -13 6 -26l261 -564l194 468q21 50 21 98q0 37 -29 57.5t-116 26.5v68h390v-68q-113 -11 -152 -101l-346 -807q-89 -205 -178 -282q-90 -78 -193 -78q-75 0 -120.5 41t-45.5 101q0 45 28 74t70 29q38 0 64 -25
t26 -60q0 -11 -4 -30q-4 -15 -4 -22q0 -24 31 -24q33 0 74.5 24t77.5 77t126 234l-355 763q-19 40 -47.5 59.5t-83.5 26.5v68zM398 1369q43 0 73 -29.5t30 -71.5q0 -43 -30.5 -73.5t-72.5 -30.5t-72 31t-30 74q0 42 30 71t72 29zM783 1366q43 0 73 -29.5t30 -72.5
t-30.5 -73.5t-72.5 -30.5q-43 0 -73.5 30.5t-30.5 72.5q0 43 30.5 73t73.5 30z" />
    <glyph glyph-name="Ydieresis" unicode="&#x178;" horiz-adv-x="1442" 
d="M-12 1479h648v-75h-72q-90 0 -117 -14t-27 -39q0 -26 14 -47l376 -583l270 497q18 33 18 72q0 52 -34 83t-97 31h-69v75h564v-75q-97 0 -153 -34t-108 -128l-341 -625v-468q0 -37 21 -53q29 -21 86 -21h127v-75h-679v75h134q54 0 78 19.5t24 54.5v455l-459 715
q-30 46 -70 64.5t-134 20.5v75zM548 1863q43 0 73 -29.5t30 -71.5q0 -43 -30.5 -73.5t-72.5 -30.5t-72 31t-30 74q0 42 30 71t72 29zM933 1860q43 0 73 -29.5t30 -72.5t-30.5 -73.5t-72.5 -30.5q-43 0 -73.5 30.5t-30.5 72.5q0 43 30.5 73t73.5 30z" />
    <glyph glyph-name="fraction" unicode="&#x2044;" horiz-adv-x="342" 
d="M616 1387h87l-956 -1387h-85z" />
    <glyph glyph-name="fraction" unicode="&#x2215;" horiz-adv-x="342" 
d="M616 1387h87l-956 -1387h-85z" />
    <glyph glyph-name="Euro" unicode="&#x20ac;" horiz-adv-x="1139" 
d="M158 842q40 271 175 421t335 150q77 0 152 -34.5t116 -82.5l47 113h57l23 -432h-62q-113 364 -325 364q-270 0 -303 -499h405l-45 -88h-364q-2 -27 -2 -88v-29h411l-45 -88h-364q28 -498 321 -498q128 0 204 76t114 246h65q-35 -206 -133 -303t-270 -97q-218 0 -354 150
t-162 426h-142l41 88h94v29q0 61 3 88h-138l41 88h105z" />
    <glyph glyph-name="guilsinglleft" unicode="&#x2039;" horiz-adv-x="530" 
d="M396 990h90l-206 -436l206 -436h-90l-327 436z" />
    <glyph glyph-name="guilsinglright" unicode="&#x203a;" horiz-adv-x="530" 
d="M44 988h91l326 -434l-326 -434h-91l207 434z" />
    <glyph glyph-name="fi" unicode="&#xf001;" horiz-adv-x="1251" 
d="M401 937h369q23 0 132 7l131 7v-806q0 -33 18 -47q31 -23 74 -23h66v-75h-492v75h43q70 0 95.5 18t25.5 52v610q0 41 -26 63q-35 31 -81 31h-355v-695q0 -41 24.5 -60t87.5 -19h57v-75h-503v75h52q67 0 91.5 19.5t24.5 59.5v695h-154v88h154q9 207 69 325.5t170.5 186
t244.5 67.5q136 0 218.5 -65.5t82.5 -150.5q0 -52 -27 -82.5t-70 -30.5q-45 0 -72.5 27t-27.5 68q0 37 22 68q13 18 13 26q0 23 -36 45t-106 22q-151 0 -233 -122t-82 -302v-82z" />
    <glyph glyph-name="fi" unicode="&#xfb01;" horiz-adv-x="1251" 
d="M401 937h369q23 0 132 7l131 7v-806q0 -33 18 -47q31 -23 74 -23h66v-75h-492v75h43q70 0 95.5 18t25.5 52v610q0 41 -26 63q-35 31 -81 31h-355v-695q0 -41 24.5 -60t87.5 -19h57v-75h-503v75h52q67 0 91.5 19.5t24.5 59.5v695h-154v88h154q9 207 69 325.5t170.5 186
t244.5 67.5q136 0 218.5 -65.5t82.5 -150.5q0 -52 -27 -82.5t-70 -30.5q-45 0 -72.5 27t-27.5 68q0 37 22 68q13 18 13 26q0 23 -36 45t-106 22q-151 0 -233 -122t-82 -302v-82z" />
    <glyph glyph-name="fl" unicode="&#xf002;" horiz-adv-x="1251" 
d="M832 1496q100 9 201 20v-1356q0 -39 22.5 -62t55.5 -23h85v-75h-491v75h73q53 0 73 19.5t20 65.5v685h-467v-685q0 -44 22.5 -64.5t69.5 -20.5h70v-75h-496v75h79q45 0 67.5 19.5t22.5 51.5v699h-155v92h155v63q0 142 62 263.5t164 187t212 65.5q30 0 69 -5t86 -15z
M871 1184q-63 21 -63 81q0 29 18 60q14 25 14 37q0 30 -41 56.5t-113 26.5q-114 0 -198 -98.5t-84 -268.5v-141h467v247z" />
    <glyph glyph-name="fl" unicode="&#xfb02;" horiz-adv-x="1251" 
d="M832 1496q100 9 201 20v-1356q0 -39 22.5 -62t55.5 -23h85v-75h-491v75h73q53 0 73 19.5t20 65.5v685h-467v-685q0 -44 22.5 -64.5t69.5 -20.5h70v-75h-496v75h79q45 0 67.5 19.5t22.5 51.5v699h-155v92h155v63q0 142 62 263.5t164 187t212 65.5q30 0 69 -5t86 -15z
M871 1184q-63 21 -63 81q0 29 18 60q14 25 14 37q0 30 -41 56.5t-113 26.5q-114 0 -198 -98.5t-84 -268.5v-141h467v247z" />
    <glyph glyph-name="daggerdbl" unicode="&#x2021;" horiz-adv-x="1024" 
d="M552 1050q87 0 179 31q105 35 145 35q49 0 78.5 -28t29.5 -70q0 -41 -30 -69t-81 -28q-35 0 -137 34q-83 26 -184 29q10 -97 83 -185q-83 -118 -83 -241q0 -119 83 -243q-37 -41 -55 -80.5t-28 -100.5q66 1 98 8q43 8 106 31q72 26 115 26q51 0 81 -27.5t30 -69.5
t-30.5 -69.5t-81.5 -27.5q-39 0 -115 26q-66 23 -101 29t-102 8q3 -80 41 -197q32 -103 32 -148q0 -54 -30 -86.5t-78 -32.5q-47 0 -76.5 33t-29.5 85q0 43 33 145q34 107 41 201q-105 -5 -215 -40q-70 -23 -106 -23q-52 0 -82 27.5t-30 71.5q0 42 29.5 67.5t79.5 25.5
q21 0 44 -4l118 -34q82 -23 162 -25q-16 108 -87 181q47 61 66.5 118.5t19.5 131.5q0 69 -18.5 120.5t-67.5 113.5q71 76 87 185q-62 -1 -97 -7t-101 -29q-79 -27 -120 -27q-52 0 -83 28t-31 70t31 68.5t85 26.5q38 0 135 -33q88 -31 181 -31q-5 93 -34 183q-39 124 -39 162
q0 54 30.5 87.5t72.5 33.5q47 0 79 -33t32 -84q0 -30 -25 -110q-29 -96 -37 -136.5t-12 -102.5z" />
    <glyph glyph-name="periodcentered" unicode="&#x2219;" horiz-adv-x="569" 
d="M282 827q45 0 77 -32.5t32 -77.5t-31.5 -77t-76.5 -32q-46 0 -77.5 31t-31.5 78t31.5 78.5t76.5 31.5z" />
    <glyph glyph-name="quotesinglbase" unicode="&#x201a;" horiz-adv-x="418" 
d="M101 -356l-32 46q99 70 145.5 139.5t46.5 119.5q0 17 -5.5 25.5t-17.5 8.5l-10 -2q-24 -9 -42 -9q-43 0 -74.5 33.5t-31.5 81.5q0 54 34 92t77 38q64 0 113 -54.5t49 -140.5q0 -210 -252 -378z" />
    <glyph glyph-name="quotedblbase" unicode="&#x201e;" horiz-adv-x="797" 
d="M45 -356l-32 46q99 70 145.5 139.5t46.5 119.5q0 17 -5.5 25.5t-17.5 8.5l-10 -2q-24 -9 -42 -9q-43 0 -74.5 33.5t-31.5 81.5q0 54 34 92t77 38q64 0 113 -54.5t49 -140.5q0 -210 -252 -378zM456 -356l-32 46q98 69 145 139t47 119q0 18 -6 26.5t-18 8.5l-10 -2
q-23 -9 -42 -9q-42 0 -73.5 33.5t-31.5 81.5q0 53 33.5 91t77.5 38q64 0 113 -54t49 -140q0 -102 -57.5 -194.5t-194.5 -183.5z" />
    <glyph glyph-name="perthousand" unicode="&#x2030;" horiz-adv-x="2048" 
d="M324 1413q134 0 212 -93.5t78 -276.5q0 -180 -78.5 -272.5t-208.5 -92.5q-124 0 -196 76q-90 94 -90 285q0 183 77.5 278.5t205.5 95.5zM328 1366q-66 0 -102 -61t-36 -249q0 -211 35 -272t103 -61q69 0 102.5 57t33.5 276q0 199 -33.5 254.5t-102.5 55.5zM1124 1387h87
l-956 -1387h-85zM1046 707q133 0 211 -93.5t78 -276.5q0 -180 -78.5 -272.5t-208.5 -92.5q-132 0 -209 91.5t-77 269.5q0 183 77.5 278.5t206.5 95.5zM1049 661q-66 0 -102 -61.5t-36 -249.5q0 -211 35 -271.5t104 -60.5q68 0 101.5 57t33.5 275q0 199 -33.5 255t-102.5 56z
M1718 707q134 0 212 -93.5t78 -276.5q0 -180 -78.5 -272.5t-209.5 -92.5q-132 0 -208.5 91.5t-76.5 269.5q0 183 77.5 278.5t205.5 95.5zM1722 661q-66 0 -102 -61.5t-36 -248.5q0 -212 35 -272.5t103 -60.5q69 0 102 57t33 275q0 199 -33.5 255t-101.5 56z" />
    <glyph glyph-name="Acircumflex" unicode="&#xc2;" horiz-adv-x="1479" 
d="M715 1510h67l531 -1353q32 -82 131 -82h46v-75h-590v75h47q92 0 130 20q26 14 26 43q0 17 -7 36l-123 314h-584l-69 -180q-27 -72 -27 -114q0 -49 45.5 -84t132.5 -35h50v-75h-536v75q86 0 136 37.5t92 142.5zM686 1225l-265 -659h523zM698 1990h82l239 -345h-64
l-217 199l-214 -199h-64z" />
    <glyph glyph-name="Ecircumflex" unicode="&#xca;" horiz-adv-x="1479" 
d="M134 1479h1172l28 -499h-67q-40 236 -126.5 330t-225.5 94h-290q-35 0 -53 -19t-18 -58v-527h127q102 0 165.5 73t68.5 224h69v-685h-69q-5 170 -69.5 243.5t-175.5 73.5h-116v-588q0 -32 21.5 -49t71.5 -17h229q373 0 430 476h72l-25 -551h-1219v75h101q59 0 83 20.5
t24 59.5v1172q0 39 -21 58t-66 19h-121v75zM698 1990h82l239 -345h-64l-217 199l-214 -199h-64z" />
    <glyph glyph-name="Aacute" unicode="&#xc1;" horiz-adv-x="1479" 
d="M715 1510h67l531 -1353q32 -82 131 -82h46v-75h-590v75h47q92 0 130 20q26 14 26 43q0 17 -7 36l-123 314h-584l-69 -180q-27 -72 -27 -114q0 -49 45.5 -84t132.5 -35h50v-75h-536v75q86 0 136 37.5t92 142.5zM686 1225l-265 -659h523zM627 1593l-25 25l171 245
q70 102 98.5 124t57.5 22q33 0 58 -24.5t25 -55.5q0 -50 -71 -103z" />
    <glyph glyph-name="Edieresis" unicode="&#xcb;" horiz-adv-x="1479" 
d="M134 1479h1172l28 -499h-67q-40 236 -126.5 330t-225.5 94h-290q-35 0 -53 -19t-18 -58v-527h127q102 0 165.5 73t68.5 224h69v-685h-69q-5 170 -69.5 243.5t-175.5 73.5h-116v-588q0 -32 21.5 -49t71.5 -17h229q373 0 430 476h72l-25 -551h-1219v75h101q59 0 83 20.5
t24 59.5v1172q0 39 -21 58t-66 19h-121v75zM547 1863q43 0 73 -29.5t30 -71.5q0 -43 -30.5 -73.5t-72.5 -30.5t-72 31t-30 74q0 42 30 71t72 29zM932 1860q43 0 73 -29.5t30 -72.5t-30.5 -73.5t-72.5 -30.5q-43 0 -73.5 30.5t-30.5 72.5q0 43 30.5 73t73.5 30z" />
    <glyph glyph-name="Egrave" unicode="&#xc8;" horiz-adv-x="1479" 
d="M134 1479h1172l28 -499h-67q-40 236 -126.5 330t-225.5 94h-290q-35 0 -53 -19t-18 -58v-527h127q102 0 165.5 73t68.5 224h69v-685h-69q-5 170 -69.5 243.5t-175.5 73.5h-116v-588q0 -32 21.5 -49t71.5 -17h229q373 0 430 476h72l-25 -551h-1219v75h101q59 0 83 20.5
t24 59.5v1172q0 39 -21 58t-66 19h-121v75zM939 1612l-23 -25l-278 203q-110 81 -110 132q0 30 25.5 55.5t58.5 25.5q55 0 100 -64z" />
    <glyph glyph-name="Iacute" unicode="&#xcd;" horiz-adv-x="834" 
d="M76 1479h682v-75h-117q-78 0 -98.5 -19.5t-20.5 -82.5v-1120q0 -67 18 -84q24 -23 87 -23h131v-75h-682v75h129q68 0 88 20t20 87v1120q0 64 -18 79q-28 23 -103 23h-116v75zM304 1587l-25 25l171 245q70 102 98.5 124t57.5 22q33 0 58 -24.5t25 -55.5q0 -50 -71 -103z
" />
    <glyph glyph-name="Icircumflex" unicode="&#xce;" horiz-adv-x="834" 
d="M76 1479h682v-75h-117q-78 0 -98.5 -19.5t-20.5 -82.5v-1120q0 -67 18 -84q24 -23 87 -23h131v-75h-682v75h129q68 0 88 20t20 87v1120q0 64 -18 79q-28 23 -103 23h-116v75zM375 1990h82l239 -345h-64l-217 199l-214 -199h-64z" />
    <glyph glyph-name="Idieresis" unicode="&#xcf;" horiz-adv-x="834" 
d="M76 1479h682v-75h-117q-78 0 -98.5 -19.5t-20.5 -82.5v-1120q0 -67 18 -84q24 -23 87 -23h131v-75h-682v75h129q68 0 88 20t20 87v1120q0 64 -18 79q-28 23 -103 23h-116v75zM224 1863q43 0 73 -29.5t30 -71.5q0 -43 -30.5 -73.5t-72.5 -30.5t-72 31t-30 74q0 42 30 71
t72 29zM609 1860q43 0 73 -29.5t30 -72.5t-30.5 -73.5t-72.5 -30.5q-43 0 -73.5 30.5t-30.5 72.5q0 43 30.5 73t73.5 30z" />
    <glyph glyph-name="Igrave" unicode="&#xcc;" horiz-adv-x="834" 
d="M76 1479h682v-75h-117q-78 0 -98.5 -19.5t-20.5 -82.5v-1120q0 -67 18 -84q24 -23 87 -23h131v-75h-682v75h129q68 0 88 20t20 87v1120q0 64 -18 79q-28 23 -103 23h-116v75zM616 1612l-23 -25l-278 203q-110 81 -110 132q0 30 25.5 55.5t58.5 25.5q55 0 100 -64z" />
    <glyph glyph-name="Oacute" unicode="&#xd3;" horiz-adv-x="1593" 
d="M784 1510q187 0 350.5 -98.5t256 -275t92.5 -397.5t-93 -399t-255.5 -277.5t-344.5 -99.5q-178 0 -334 97.5t-250.5 279t-94.5 402.5q0 218 91.5 393.5t250.5 275t331 99.5zM800 1433q-195 0 -316 -162t-121 -528q0 -397 124 -549t307 -152q128 0 225 69t154.5 219
t57.5 394q0 266 -54 415.5t-154 221.5t-223 72zM628 1587l-25 25l171 245q70 102 98.5 124t57.5 22q33 0 58 -24.5t25 -55.5q0 -50 -71 -103z" />
    <glyph glyph-name="Ocircumflex" unicode="&#xd4;" horiz-adv-x="1593" 
d="M784 1510q187 0 350.5 -98.5t256 -275t92.5 -397.5t-93 -399t-255.5 -277.5t-344.5 -99.5q-178 0 -334 97.5t-250.5 279t-94.5 402.5q0 218 91.5 393.5t250.5 275t331 99.5zM800 1433q-195 0 -316 -162t-121 -528q0 -397 124 -549t307 -152q128 0 225 69t154.5 219
t57.5 394q0 266 -54 415.5t-154 221.5t-223 72zM755 1990h82l239 -345h-64l-217 199l-214 -199h-64z" />
    <glyph glyph-name="apple" unicode="&#xf000;" horiz-adv-x="1618" 
 />
    <glyph glyph-name="Ograve" unicode="&#xd2;" horiz-adv-x="1593" 
d="M784 1510q187 0 350.5 -98.5t256 -275t92.5 -397.5t-93 -399t-255.5 -277.5t-344.5 -99.5q-178 0 -334 97.5t-250.5 279t-94.5 402.5q0 218 91.5 393.5t250.5 275t331 99.5zM800 1433q-195 0 -316 -162t-121 -528q0 -397 124 -549t307 -152q128 0 225 69t154.5 219
t57.5 394q0 266 -54 415.5t-154 221.5t-223 72zM996 1612l-23 -25l-278 203q-110 81 -110 132q0 30 25.5 55.5t58.5 25.5q55 0 100 -64z" />
    <glyph glyph-name="Uacute" unicode="&#xda;" horiz-adv-x="1669" 
d="M54 1479h683v-75h-137q-55 0 -77 -18t-22 -55v-835q0 -131 23 -198q34 -99 124.5 -158t236.5 -59q202 0 308 104.5t106 279.5v679q0 90 -12.5 136.5t-36 72.5t-59.5 38.5t-120 12.5v75h559v-75h-40q-94 0 -140 -50.5t-46 -146.5v-727q0 -238 -136 -365
q-153 -143 -407 -143q-220 0 -346 62.5t-183 179.5q-43 89 -43 224v893q0 34 -23.5 53.5t-70.5 19.5h-141v75zM782 1587l-25 25l171 245q70 102 98.5 124t57.5 22q33 0 58 -24.5t25 -55.5q0 -50 -71 -103z" />
    <glyph glyph-name="Ucircumflex" unicode="&#xdb;" horiz-adv-x="1669" 
d="M54 1479h683v-75h-137q-55 0 -77 -18t-22 -55v-835q0 -131 23 -198q34 -99 124.5 -158t236.5 -59q202 0 308 104.5t106 279.5v679q0 90 -12.5 136.5t-36 72.5t-59.5 38.5t-120 12.5v75h559v-75h-40q-94 0 -140 -50.5t-46 -146.5v-727q0 -238 -136 -365
q-153 -143 -407 -143q-220 0 -346 62.5t-183 179.5q-43 89 -43 224v893q0 34 -23.5 53.5t-70.5 19.5h-141v75zM833 1990h82l239 -345h-64l-217 199l-214 -199h-64z" />
    <glyph glyph-name="Ugrave" unicode="&#xd9;" horiz-adv-x="1669" 
d="M54 1479h683v-75h-137q-55 0 -77 -18t-22 -55v-835q0 -131 23 -198q34 -99 124.5 -158t236.5 -59q202 0 308 104.5t106 279.5v679q0 90 -12.5 136.5t-36 72.5t-59.5 38.5t-120 12.5v75h559v-75h-40q-94 0 -140 -50.5t-46 -146.5v-727q0 -238 -136 -365
q-153 -143 -407 -143q-220 0 -346 62.5t-183 179.5q-43 89 -43 224v893q0 34 -23.5 53.5t-70.5 19.5h-141v75zM1034 1612l-23 -25l-278 203q-110 81 -110 132q0 30 25.5 55.5t58.5 25.5q55 0 100 -64z" />
    <glyph glyph-name="dotlessi" unicode="&#x131;" horiz-adv-x="645" 
d="M49 937l372 11v-806q0 -33 16 -47q23 -20 58 -20h106v-75h-532v75h99q44 0 64.5 21.5t20.5 62.5v590q0 56 -32 84.5t-95 28.5h-77v75z" />
    <glyph glyph-name="circumflex" unicode="&#x2c6;" horiz-adv-x="682" 
d="M299 1496h82l239 -345h-64l-217 199l-214 -199h-64z" />
    <glyph glyph-name="tilde" unicode="&#x2dc;" horiz-adv-x="682" 
d="M647 1394h34q-1 -106 -58 -167.5t-140 -61.5q-62 0 -205 52q-105 37 -141 37q-74 0 -99 -89h-34q21 226 199 226q66 0 190 -44q126 -45 157 -45q71 0 97 92z" />
    <glyph glyph-name="macron" unicode="&#x2c9;" horiz-adv-x="682" 
d="M18 1395h647v-130h-647v130z" />
    <glyph glyph-name="breve" unicode="&#x2d8;" horiz-adv-x="682" 
d="M32 1479h63q26 -65 81.5 -97t154.5 -32q102 0 167 36q49 28 75 93h66q-9 -105 -50.5 -172.5t-109.5 -106.5t-147 -39q-118 0 -199.5 80.5t-100.5 237.5z" />
    <glyph glyph-name="dotaccent" unicode="&#x2d9;" horiz-adv-x="682" 
d="M341 1436q43 0 73 -29.5t30 -71.5q0 -43 -30.5 -73.5t-72.5 -30.5t-72 30.5t-30 73.5q0 42 30 71.5t72 29.5z" />
    <glyph glyph-name="ring" unicode="&#x2da;" horiz-adv-x="682" 
d="M340 1526q84 0 145 -61t61 -146q0 -87 -61 -148.5t-148 -61.5q-86 0 -147 60.5t-61 146.5q0 87 61.5 148.5t149.5 61.5zM339 1444q-53 0 -90.5 -37.5t-37.5 -90.5q0 -52 37 -88.5t90 -36.5q51 0 88.5 37.5t37.5 89.5q0 53 -36.5 89.5t-88.5 36.5z" />
    <glyph glyph-name="cedilla" unicode="&#xb8;" horiz-adv-x="682" 
d="M318 -39q80 -13 121.5 -54t41.5 -95q0 -85 -70.5 -143t-202.5 -58q-38 0 -104 4v77h48q88 0 129 31t41 77q0 66 -101 83l22 127h81z" />
    <glyph glyph-name="hungarumlaut" unicode="&#x2dd;" horiz-adv-x="682" 
d="M522 1094l-25 25l170 245q71 102 99.5 124t56.5 22q33 0 58.5 -24t25.5 -56q0 -50 -71 -103zM118 1094l-25 25l171 245q70 102 98.5 124t57.5 22q33 0 58 -24.5t25 -55.5q0 -50 -71 -103z" />
    <glyph glyph-name="ogonek" unicode="&#x2db;" horiz-adv-x="682" 
d="M226 10h53q-27 -55 -27 -103q0 -90 61 -146.5t156 -56.5q55 0 121 23l21 -33q-76 -46 -127 -62.5t-108 -16.5q-107 0 -169 55t-62 140q0 119 81 200z" />
    <glyph glyph-name="caron" unicode="&#x2c7;" horiz-adv-x="682" 
d="M60 1496h64l215 -200l216 200h64l-241 -348h-85z" />
    <glyph glyph-name="Lslash" unicode="&#x141;" horiz-adv-x="1366" 
d="M471 152q0 -42 23.5 -59.5t94.5 -17.5h208q166 0 271.5 110.5t153.5 383.5h70l-34 -569h-1232v75h121q62 0 87 23.5t25 75.5v481l-233 -142v99l233 145v572q0 38 -21 56.5t-62 18.5h-150v75h685v-75h-164q-39 0 -57.5 -20.5t-18.5 -64.5v-448l417 261v-101l-417 -261
v-618z" />
    <glyph glyph-name="lslash" unicode="&#x142;" horiz-adv-x="645" 
d="M30 1404v75l370 17v-570l177 159v-93l-177 -159v-695q0 -28 17 -43q25 -20 61 -20h99v-75h-530v75h94q46 0 68.5 22t22.5 62v545l-191 -159v92l191 160v502q0 50 -27 73q-37 32 -91 32h-84z" />
    <glyph glyph-name="Scaron" unicode="&#x160;" horiz-adv-x="1290" 
d="M947 1367l90 129h73l6 -539h-66q-62 248 -183.5 362t-279.5 114q-132 0 -216 -79t-84 -193q0 -71 32 -124.5t95.5 -87t239.5 -71.5q247 -54 346.5 -109t148.5 -138.5t49 -195.5q0 -200 -134.5 -331.5t-347.5 -131.5q-229 0 -398 148l-113 -138h-72v573h72
q42 -237 188 -374t329 -137q148 0 241.5 87.5t93.5 212.5q0 71 -35 124.5t-111 90t-299 88.5q-245 58 -334 130q-125 102 -125 289q0 195 124.5 319.5t318.5 124.5q93 0 177 -33t174 -110zM364 1990h64l215 -200l216 200h64l-241 -348h-85z" />
    <glyph glyph-name="scaron" unicode="&#x161;" horiz-adv-x="948" 
d="M179 353q62 -173 142.5 -239.5t198.5 -66.5q109 0 167.5 47.5t58.5 120.5q0 42 -21.5 73.5t-59.5 47t-197 45.5q-152 30 -212 63t-93.5 91t-33.5 126q0 103 69 187q89 107 249 107q122 0 226 -77l66 70h41l26 -334h-67q-44 142 -119 204.5t-185 62.5q-95 0 -149 -46.5
t-54 -113.5q0 -59 50 -98q49 -40 192 -63q166 -28 216 -47q82 -30 127 -92.5t45 -152.5q0 -124 -97.5 -210t-247.5 -86q-139 0 -258 92l-73 -84h-53l-20 373h66zM217 1496h64l215 -200l216 200h64l-241 -348h-85z" />
    <glyph glyph-name="Zcaron" unicode="&#x17d;" horiz-adv-x="1251" 
d="M150 1479h1007v-75l-845 -1329h321q138 0 226 45t142.5 134.5t99.5 300.5h70l-27 -555h-1070v67l853 1337h-305q-125 0 -194 -29q-94 -39 -153 -139.5t-83 -268.5h-70zM345 1990h64l215 -200l216 200h64l-241 -348h-85z" />
    <glyph glyph-name="zcaron" unicode="&#x17e;" horiz-adv-x="985" 
d="M151 937h743v-60l-589 -802h287q99 0 158 62t91 230h67l-22 -367h-788v69l588 797h-249q-78 0 -116.5 -21.5t-66.5 -71t-52 -170.5h-74zM246 1496h64l215 -200l216 200h64l-241 -348h-85z" />
    <glyph glyph-name="brokenbar" unicode="&#xa6;" horiz-adv-x="1241" 
d="M554 1479h134v-603h-134v603zM554 322h134v-603h-134v603z" />
    <glyph glyph-name="Eth" unicode="&#xd0;" horiz-adv-x="1593" 
d="M32 1404v75h764q170 0 289 -60q148 -76 251.5 -253t103.5 -419q0 -200 -62 -360q-47 -123 -144.5 -215t-237.5 -138q-105 -34 -280 -34h-684v75h140q53 0 73.5 17t20.5 53v551h-234v88h234v552q0 31 -22 49.5t-61 18.5h-151zM481 696v-548q0 -36 24.5 -54.5t84.5 -18.5
h126q169 0 296 87q83 58 126 163q59 142 59 392q0 370 -129 542q-109 145 -331 145h-169q-45 0 -66 -19t-21 -57v-544h256v-88h-256z" />
    <glyph glyph-name="eth" unicode="&#xf0;" horiz-adv-x="1024" 
d="M711 881q-26 134 -82.5 234t-168.5 204l-180 -78l-42 53l169 71q-65 52 -142 98l55 41q97 -49 171 -100l156 59l49 -52l-143 -57q195 -159 297 -365.5t102 -434.5q0 -190 -59 -321t-159.5 -196t-231.5 -65q-186 0 -313 137.5t-127 358.5q0 220 127 358.5t306 138.5
q73 0 135 -24q44 -17 81 -60zM505 894q-115 0 -187 -101t-72 -321q0 -224 72 -326t188 -102q117 0 189 103t72 336q0 216 -71.5 313.5t-190.5 97.5z" />
    <glyph glyph-name="Yacute" unicode="&#xdd;" horiz-adv-x="1442" 
d="M-12 1479h648v-75h-72q-90 0 -117 -14t-27 -39q0 -26 14 -47l376 -583l270 497q18 33 18 72q0 52 -34 83t-97 31h-69v75h564v-75q-97 0 -153 -34t-108 -128l-341 -625v-468q0 -37 21 -53q29 -21 86 -21h127v-75h-679v75h134q54 0 78 19.5t24 54.5v455l-459 715
q-30 46 -70 64.5t-134 20.5v75zM648 1587l-25 25l171 245q70 102 98.5 124t57.5 22q33 0 58 -24.5t25 -55.5q0 -50 -71 -103z" />
    <glyph glyph-name="yacute" unicode="&#xfd;" horiz-adv-x="1100" 
d="M46 937h449v-68h-42q-59 0 -80.5 -15.5t-21.5 -44.5q0 -13 6 -26l261 -564l194 468q21 50 21 98q0 37 -29 57.5t-116 26.5v68h390v-68q-113 -11 -152 -101l-346 -807q-89 -205 -178 -282q-90 -78 -193 -78q-75 0 -120.5 41t-45.5 101q0 45 28 74t70 29q38 0 64 -25
t26 -60q0 -11 -4 -30q-4 -15 -4 -22q0 -24 31 -24q33 0 74.5 24t77.5 77t126 234l-355 763q-19 40 -47.5 59.5t-83.5 26.5v68zM448 1094l-25 25l171 245q70 102 98.5 124t57.5 22q33 0 58 -24.5t25 -55.5q0 -50 -71 -103z" />
    <glyph glyph-name="Thorn" unicode="&#xde;" horiz-adv-x="1366" 
d="M487 357v-195q0 -44 21 -63q28 -24 75 -24h170v-75h-711v75h148q44 0 64.5 17.5t20.5 47.5v1179q0 45 -26 65t-98 20h-109v75h711v-75h-142q-72 0 -98 -20.5t-26 -64.5v-149h284q247 0 377 -112.5t130 -293.5t-120 -276q-165 -131 -405 -131h-266zM487 430h201
q191 0 275.5 79.5t84.5 261.5q0 120 -36.5 191.5t-101.5 103.5t-201 32h-222v-668z" />
    <glyph glyph-name="thorn" unicode="&#xfe;" horiz-adv-x="1176" 
d="M351 1496v-744q69 110 145 156t166 46q96 0 183.5 -59t142 -173t54.5 -257q0 -229 -134 -373q-111 -120 -266 -120q-88 0 -159 45t-126 134v-379q0 -44 21 -62q27 -24 75 -24h69v-71h-499v71h69q48 0 72 19t24 50v1521q0 69 -32.5 97t-132.5 31v75zM616 863
q-109 0 -184.5 -105t-75.5 -304q0 -201 73 -297t186 -96q106 0 163 82q73 108 73 316q0 218 -66 311t-169 93z" />
    <glyph glyph-name="minus" unicode="&#x2212;" horiz-adv-x="1241" 
d="M69 759h1104v-133h-1104v133z" />
    <glyph glyph-name="multiply" unicode="&#xd7;" horiz-adv-x="1241" 
d="M208 1200l413 -413l413 413l94 -94l-413 -413l412 -413l-94 -94l-412 413l-412 -412l-94 94l412 412l-413 413z" />
    <glyph glyph-name="onesuperior" unicode="&#xb9;" horiz-adv-x="682" 
d="M125 1336q96 2 153.5 19t116.5 58h14v-628q0 -18 11.5 -28t32.5 -10h99v-49h-413v49h87q39 0 53.5 16.5t14.5 57.5v408q0 34 -16.5 47.5t-64.5 13.5h-88v46z" />
    <glyph glyph-name="twosuperior" unicode="&#xb2;" horiz-adv-x="682" 
d="M176 817h250q36 0 52 16.5t37 93.5h37l-17 -229h-498v42l249 249q129 128 129 243q0 57 -41 95.5t-105 38.5q-58 0 -96 -27.5t-38 -55.5q0 -21 40 -37q43 -17 43 -55q0 -32 -20.5 -52.5t-52.5 -20.5q-39 0 -65.5 29t-26.5 78q0 77 69 132.5t194 55.5q122 0 181 -48
t59 -126q0 -57 -41 -118.5t-197 -185.5q-96 -77 -142 -118z" />
    <glyph glyph-name="threesuperior" unicode="&#xb3;" horiz-adv-x="682" 
d="M447 1062q79 -19 118 -63.5t39 -114.5q0 -86 -71 -143.5t-194 -57.5q-122 0 -190.5 52.5t-68.5 119.5q0 39 22.5 63t57.5 24q31 0 49 -19t18 -51q0 -25 -19 -53q-14 -22 -14 -34q0 -20 26 -35q36 -22 94 -22q76 0 112.5 38.5t36.5 125.5q0 76 -28 113q-29 36 -79 36
l-43 -3l-40 -2q-32 0 -43 7.5t-11 20.5t10.5 20.5t34.5 7.5l47 -3q35 -4 51 -4q48 0 73 32q25 31 25 104q0 77 -34.5 112.5t-102.5 35.5q-51 0 -77 -17.5t-26 -40.5q0 -12 11 -32q12 -23 12 -39q0 -25 -18.5 -41.5t-49.5 -16.5t-50 20.5t-19 55.5q0 59 65.5 107t175.5 48
q109 0 173 -54t64 -132q0 -52 -34 -93.5t-103 -71.5z" />
    <glyph glyph-name="onehalf" unicode="&#xbd;" horiz-adv-x="1706" 
d="M167 1337q96 2 153.5 19t116.5 58h14v-628q0 -18 11.5 -28t32.5 -10h99v-49h-413v49h87q39 0 53.5 16.5t14.5 57.5v408q0 34 -16.5 47.5t-64.5 13.5h-88v46zM1252 1387h87l-956 -1387h-85zM1111 118h250q36 0 52 16.5t37 93.5h37l-17 -229h-498v42l249 249
q129 128 129 243q0 57 -41 95.5t-105 38.5q-58 0 -96 -27.5t-38 -55.5q0 -21 40 -37q43 -17 43 -55q0 -32 -20.5 -52.5t-52.5 -20.5q-39 0 -65.5 29t-26.5 78q0 77 69 132.5t194 55.5q122 0 181 -48t59 -126q0 -57 -41 -118.5t-197 -185.5q-96 -77 -142 -118z" />
    <glyph glyph-name="onequarter" unicode="&#xbc;" horiz-adv-x="1706" 
d="M167 1337q96 2 153.5 19t116.5 58h14v-628q0 -18 11.5 -28t32.5 -10h99v-49h-413v49h87q39 0 53.5 16.5t14.5 57.5v408q0 34 -16.5 47.5t-64.5 13.5h-88v46zM1307 1387h87l-956 -1387h-85zM1306 714h34v-494h135v-59h-135v-57q0 -31 15 -44.5t47 -13.5h51v-47h-350v47h55
q33 0 49 13.5t16 37.5v64h-336v59zM1223 546l-273 -326h273v326z" />
    <glyph glyph-name="threequarters" unicode="&#xbe;" horiz-adv-x="1706" 
d="M554 1062q79 -19 118 -63.5t39 -114.5q0 -86 -71 -143.5t-194 -57.5q-122 0 -190.5 52.5t-68.5 119.5q0 39 22.5 63t57.5 24q31 0 49 -19t18 -51q0 -25 -19 -53q-14 -22 -14 -34q0 -20 26 -35q36 -22 94 -22q76 0 112.5 38.5t36.5 125.5q0 76 -28 113q-29 36 -79 36
l-43 -3l-40 -2q-32 0 -43 7.5t-11 20.5t10.5 20.5t34.5 7.5l47 -3q35 -4 51 -4q48 0 73 32q25 31 25 104q0 77 -34.5 112.5t-102.5 35.5q-51 0 -77 -17.5t-26 -40.5q0 -12 11 -32q12 -23 12 -39q0 -25 -18.5 -41.5t-49.5 -16.5t-50 20.5t-19 55.5q0 59 65.5 107t175.5 48
q109 0 173 -54t64 -132q0 -52 -34 -93.5t-103 -71.5zM1335 1387h87l-956 -1387h-85zM1331 715h34v-494h135v-59h-135v-57q0 -31 15 -44.5t47 -13.5h51v-47h-350v47h55q33 0 49 13.5t16 37.5v64h-336v59zM1248 547l-273 -326h273v326z" />
    <glyph glyph-name="franc" unicode="&#x20a3;" horiz-adv-x="1366" 
d="M556 362h276v-88h-276v-108q0 -50 24 -70.5t83 -20.5h154v-75h-711v75h152q46 0 65.5 18.5t19.5 60.5v120h-237v88h237v968q0 40 -20.5 57t-71.5 17h-145v75h1203l20 -512h-69q-46 264 -129 344q-95 93 -271 93h-237q-35 0 -51 -16.5t-16 -49.5v-535h127q106 0 169 70
t68 216h72v-667h-72q-7 166 -68 237t-169 71h-127v-368z" />
    <glyph glyph-name="Gbreve" unicode="&#x11e;" horiz-adv-x="1593" 
d="M1151 1363l82 147h67l37 -590h-65q-75 255 -177 369q-130 145 -298 145q-129 0 -231 -73t-156.5 -219t-54.5 -411q0 -257 54.5 -402t150.5 -213.5t225 -68.5q175 0 270.5 98t95.5 253v139q0 33 -25.5 51t-83.5 18h-125v70h620v-70h-84q-56 0 -80 -19.5t-24 -56.5v-565
h-66q-36 132 -75 253q-75 -123 -178.5 -184.5t-234.5 -61.5q-187 0 -346.5 96t-252 270.5t-92.5 394.5q0 221 93 396t254.5 278t326.5 103q94 0 179.5 -31.5t193.5 -115.5zM512 1970h63q26 -65 81.5 -97t154.5 -32q102 0 167 36q49 28 75 93h66q-9 -105 -50.5 -172.5
t-109.5 -106.5t-147 -39q-118 0 -199.5 80.5t-100.5 237.5z" />
    <glyph glyph-name="gbreve" unicode="&#x11f;" horiz-adv-x="1100" 
d="M785 884q100 101 184 101q50 0 83 -32t33 -78q0 -37 -22.5 -61.5t-52.5 -24.5q-57 0 -77 70q-8 30 -27 30q-34 0 -74 -45q43 -59 59 -102.5t16 -93.5q0 -87 -42 -153.5t-139.5 -117.5t-186.5 -51h-109q-116 0 -154 -24q-38 -25 -38 -73q0 -39 31 -60t117 -21l247 5
q187 0 269.5 -62.5t82.5 -171.5q0 -120 -94 -202q-131 -116 -391 -116q-215 0 -319 79q-82 62 -82 139q0 59 52.5 108t176.5 73q-99 24 -149 70.5t-50 115.5q0 64 40.5 111.5t140.5 81.5q-85 47 -128 113.5t-43 152.5q0 136 107 228t278 92q70 0 135 -20t126 -61zM522 901
q-89 0 -147 -65.5t-58 -183.5q0 -126 58 -195.5t148 -69.5t147.5 67.5t57.5 193.5q0 117 -58.5 185t-147.5 68zM581 -1q-184 0 -262.5 -51t-78.5 -123q0 -68 59 -107q78 -52 222 -52q172 0 259 57t87 127q0 41 -27 76.5t-86 54t-173 18.5zM228 1479h63q26 -65 81.5 -97
t154.5 -32q102 0 167 36q49 28 75 93h66q-9 -105 -50.5 -172.5t-109.5 -106.5t-147 -39q-118 0 -199.5 80.5t-100.5 237.5z" />
    <glyph glyph-name="Idotaccent" unicode="&#x130;" horiz-adv-x="834" 
d="M76 1479h682v-75h-117q-78 0 -98.5 -19.5t-20.5 -82.5v-1120q0 -67 18 -84q24 -23 87 -23h131v-75h-682v75h129q68 0 88 20t20 87v1120q0 64 -18 79q-28 23 -103 23h-116v75zM416 1927q43 0 73 -29.5t30 -71.5q0 -43 -30.5 -73.5t-72.5 -30.5t-72 30.5t-30 73.5
q0 42 30 71.5t72 29.5z" />
    <glyph glyph-name="Scedilla" unicode="&#x15e;" horiz-adv-x="1290" 
d="M947 1367l90 129h73l6 -539h-66q-62 248 -183.5 362t-279.5 114q-132 0 -216 -79t-84 -193q0 -71 32 -124.5t95.5 -87t239.5 -71.5q247 -54 346.5 -109t148.5 -138.5t49 -195.5q0 -200 -134.5 -331.5t-347.5 -131.5q-229 0 -398 148l-113 -138h-72v573h72
q42 -237 188 -374t329 -137q148 0 241.5 87.5t93.5 212.5q0 71 -35 124.5t-111 90t-299 88.5q-245 58 -334 130q-125 102 -125 289q0 195 124.5 319.5t318.5 124.5q93 0 177 -33t174 -110zM718 -39q80 -13 121.5 -54t41.5 -95q0 -85 -70.5 -143t-202.5 -58q-38 0 -104 4v77
h48q88 0 129 31t41 77q0 66 -101 83l22 127h81z" />
    <glyph glyph-name="scedilla" unicode="&#x15f;" horiz-adv-x="948" 
d="M179 353q62 -173 142.5 -239.5t198.5 -66.5q109 0 167.5 47.5t58.5 120.5q0 42 -21.5 73.5t-59.5 47t-197 45.5q-152 30 -212 63t-93.5 91t-33.5 126q0 103 69 187q89 107 249 107q122 0 226 -77l66 70h41l26 -334h-67q-44 142 -119 204.5t-185 62.5q-95 0 -149 -46.5
t-54 -113.5q0 -59 50 -98q49 -40 192 -63q166 -28 216 -47q82 -30 127 -92.5t45 -152.5q0 -124 -97.5 -210t-247.5 -86q-139 0 -258 92l-73 -84h-53l-20 373h66zM511 -39q80 -13 121.5 -54t41.5 -95q0 -85 -70.5 -143t-202.5 -58q-38 0 -104 4v77h48q88 0 129 31t41 77
q0 66 -101 83l22 127h81z" />
    <glyph glyph-name="Cacute" unicode="&#x106;" horiz-adv-x="1479" 
d="M1185 1364l69 143h63l26 -595h-67q-66 251 -166 370q-124 149 -296 149q-186 0 -303 -166t-117 -562q0 -333 134 -508q114 -148 320 -148q180 0 302 115.5t159 348.5h71q-31 -264 -181 -406t-378 -142q-185 0 -339.5 93t-247 267.5t-92.5 382.5q0 221 95.5 415
t244.5 291.5t321 97.5q96 0 186 -33t196 -113zM687 1585l-25 25l171 245q70 102 98.5 124t57.5 22q33 0 58 -24.5t25 -55.5q0 -50 -71 -103z" />
    <glyph glyph-name="cacute" unicode="&#x107;" horiz-adv-x="909" 
d="M783 278l65 -19q-78 -287 -344 -287q-195 0 -319 129t-124 343q0 248 136 384.5t320 136.5q138 0 228 -76t90 -169q0 -56 -33.5 -92.5t-79.5 -36.5q-45 0 -76 31t-31 75t34 84q16 19 16 30q0 29 -39 56.5t-106 27.5q-122 0 -185 -89q-90 -129 -90 -340q0 -201 80 -304.5
t204 -103.5q171 0 254 220zM379 1094l-25 25l171 245q70 102 98.5 124t57.5 22q33 0 58 -24.5t25 -55.5q0 -50 -71 -103z" />
    <glyph glyph-name="Ccaron" unicode="&#x10c;" horiz-adv-x="1479" 
d="M1185 1364l69 143h63l26 -595h-67q-66 251 -166 370q-124 149 -296 149q-186 0 -303 -166t-117 -562q0 -333 134 -508q114 -148 320 -148q180 0 302 115.5t159 348.5h71q-31 -264 -181 -406t-378 -142q-185 0 -339.5 93t-247 267.5t-92.5 382.5q0 221 95.5 415
t244.5 291.5t321 97.5q96 0 186 -33t196 -113zM518 1988h64l215 -200l216 200h64l-241 -348h-85z" />
    <glyph glyph-name="ccaron" unicode="&#x10d;" horiz-adv-x="909" 
d="M783 278l65 -19q-78 -287 -344 -287q-195 0 -319 129t-124 343q0 248 136 384.5t320 136.5q138 0 228 -76t90 -169q0 -56 -33.5 -92.5t-79.5 -36.5q-45 0 -76 31t-31 75t34 84q16 19 16 30q0 29 -39 56.5t-106 27.5q-122 0 -185 -89q-90 -129 -90 -340q0 -201 80 -304.5
t204 -103.5q171 0 254 220zM222 1496h64l215 -200l216 200h64l-241 -348h-85z" />
    <glyph glyph-name="dmacron" unicode="&#x111;" horiz-adv-x="1176" 
d="M598 1479l366 17v-286h187v-72h-187v-924q0 -75 28.5 -107t85.5 -32h65v-75h-320l-24 191q-57 -102 -133.5 -153.5t-171.5 -51.5q-160 0 -272.5 134t-112.5 354q0 238 144 380q113 111 260 111q90 0 161.5 -45t124.5 -136v355l-334 -1v72h334v103q0 42 -32.5 66.5
t-101.5 24.5h-67v75zM540 882q-108 0 -171.5 -89t-63.5 -300q0 -229 65 -322.5t167 -93.5q109 0 186.5 104.5t77.5 305.5q0 190 -83 299q-72 96 -178 96z" />
    <glyph glyph-name="overscore" unicode="&#xaf;" horiz-adv-x="1024" 
d="M-12 1735h1048v-102h-1048v102z" />
    <glyph glyph-name="middot" unicode="&#xb7;" horiz-adv-x="682" 
d="M615 851q43 0 73 -30t30 -71q0 -43 -30.5 -74t-72.5 -31t-72 31t-30 74q0 42 30 71.5t72 29.5z" />
    <glyph glyph-name="foursuperior" unicode="&#xf003;" horiz-adv-x="682" 
d="M442 1413h34v-494h135v-59h-135v-57q0 -31 15 -44.5t47 -13.5h51v-47h-350v47h55q33 0 49 13.5t16 37.5v64h-336v59zM359 1245l-273 -326h273v326z" />
    <glyph glyph-name="Abreve" unicode="&#x102;" horiz-adv-x="1479" 
d="M715 1510h67l531 -1353q32 -82 131 -82h46v-75h-590v75h47q92 0 130 20q26 14 26 43q0 17 -7 36l-123 314h-584l-69 -180q-27 -72 -27 -114q0 -49 45.5 -84t132.5 -35h50v-75h-536v75q86 0 136 37.5t92 142.5zM686 1225l-265 -659h523zM449 1972h63q26 -65 81.5 -97
t154.5 -32q102 0 167 36q49 28 75 93h66q-9 -105 -50.5 -172.5t-109.5 -106.5t-147 -39q-118 0 -199.5 80.5t-100.5 237.5z" />
    <glyph glyph-name="abreve" unicode="&#x103;" horiz-adv-x="1139" 
d="M1057 103l36 -56q-73 -75 -162 -75q-68 0 -114.5 37t-81.5 130q-95 -100 -167 -133.5t-173 -33.5q-144 0 -219 62t-75 159q0 146 171.5 242.5t456.5 128.5v142q0 76 -61 130t-155 54q-87 0 -150 -36q-45 -27 -45 -53q0 -15 24 -47q29 -40 29 -71q0 -45 -29 -73.5
t-76 -28.5q-50 0 -83.5 34t-33.5 87q0 99 111.5 181t292.5 82q167 0 255 -72q88 -73 88 -177v-512q0 -68 22 -100q22 -33 57 -33q39 0 82 32zM729 498q-254 -35 -360 -114q-79 -60 -79 -170q0 -77 41 -120.5t107 -43.5q118 0 204.5 89.5t86.5 224.5v134zM232 1479h63
q26 -65 81.5 -97t154.5 -32q102 0 167 36q49 28 75 93h66q-9 -105 -50.5 -172.5t-109.5 -106.5t-147 -39q-118 0 -199.5 80.5t-100.5 237.5z" />
    <glyph glyph-name="Aogonek" unicode="&#x104;" horiz-adv-x="1479" 
d="M715 1510h67l531 -1353q32 -82 131 -82h46v-75h-590v75h47q92 0 130 20q26 14 26 43q0 17 -7 36l-123 314h-584l-69 -180q-27 -72 -27 -114q0 -49 45.5 -84t132.5 -35h50v-75h-536v75q86 0 136 37.5t92 142.5zM686 1225l-265 -659h523zM1252 10h53q-27 -55 -27 -103
q0 -90 61 -146.5t156 -56.5q55 0 121 23l21 -33q-76 -46 -127 -62.5t-108 -16.5q-107 0 -169 55t-62 140q0 119 81 200z" />
    <glyph glyph-name="aogonek" unicode="&#x105;" horiz-adv-x="1139" 
d="M1057 103l36 -56q-73 -75 -162 -75q-68 0 -114.5 37t-81.5 130q-95 -100 -167 -133.5t-173 -33.5q-144 0 -219 62t-75 159q0 146 171.5 242.5t456.5 128.5v142q0 76 -61 130t-155 54q-87 0 -150 -36q-45 -27 -45 -53q0 -15 24 -47q29 -40 29 -71q0 -45 -29 -73.5
t-76 -28.5q-50 0 -83.5 34t-33.5 87q0 99 111.5 181t292.5 82q167 0 255 -72q88 -73 88 -177v-512q0 -68 22 -100q22 -33 57 -33q39 0 82 32zM729 498q-254 -35 -360 -114q-79 -60 -79 -170q0 -77 41 -120.5t107 -43.5q118 0 204.5 89.5t86.5 224.5v134zM926 10h53
q-27 -55 -27 -103q0 -90 61 -146.5t156 -56.5q55 0 121 23l21 -33q-76 -46 -127 -62.5t-108 -16.5q-107 0 -169 55t-62 140q0 119 81 200z" />
    <glyph glyph-name="Dcaron" unicode="&#x10e;" horiz-adv-x="1593" 
d="M70 1479h764q170 0 289 -60q148 -76 251.5 -253t103.5 -419q0 -200 -62 -360q-47 -123 -144.5 -215t-237.5 -138q-105 -34 -280 -34h-684v75h140q53 0 73.5 17t20.5 53v1191q0 31 -22 49.5t-61 18.5h-151v75zM606 1404q-45 0 -66.5 -19t-21.5 -57v-1180q0 -36 25 -54.5
t85 -18.5h126q169 0 296 87q83 58 126 163q59 142 59 392q0 370 -129 542q-110 145 -332 145h-168zM410 1987h64l215 -200l216 200h64l-241 -348h-85z" />
    <glyph glyph-name="dcaron" unicode="&#x10f;" horiz-adv-x="1333" 
d="M598 1479l366 17v-1282q0 -75 28.5 -107t85.5 -32h65v-75h-320l-24 191q-57 -102 -133.5 -153.5t-171.5 -51.5q-160 0 -272.5 134t-112.5 354q0 238 144 380q113 111 260 111q90 0 161.5 -45t124.5 -136v529q0 42 -32.5 66.5t-101.5 24.5h-67v75zM540 882
q-108 0 -171.5 -89t-63.5 -300q0 -229 65 -322.5t167 -93.5q109 0 186.5 104.5t77.5 305.5q0 190 -83 299q-72 96 -178 96zM1165 1179l-16 36q102 43 102 114q0 19 -18 19q-4 0 -17 -2q-16 -3 -25 -3q-37 0 -63.5 23.5t-26.5 54.5q0 30 26.5 53t70.5 23q55 0 89 -34t34 -91
q0 -132 -156 -193z" />
    <glyph glyph-name="Dslash" unicode="&#x110;" horiz-adv-x="1593" 
d="M32 1404v75h764q170 0 289 -60q148 -76 251.5 -253t103.5 -419q0 -200 -62 -360q-47 -123 -144.5 -215t-237.5 -138q-105 -34 -280 -34h-684v75h140q53 0 73.5 17t20.5 53v551h-234v88h234v552q0 31 -22 49.5t-61 18.5h-151zM481 696v-548q0 -36 24.5 -54.5t84.5 -18.5
h126q169 0 296 87q83 58 126 163q59 142 59 392q0 370 -129 542q-109 145 -331 145h-169q-45 0 -66 -19t-21 -57v-544h256v-88h-256z" />
    <glyph glyph-name="Eogonek" unicode="&#x118;" horiz-adv-x="1479" 
d="M134 1479h1172l28 -499h-67q-40 236 -126.5 330t-225.5 94h-290q-35 0 -53 -19t-18 -58v-527h127q102 0 165.5 73t68.5 224h69v-685h-69q-5 170 -69.5 243.5t-175.5 73.5h-116v-588q0 -32 21.5 -49t71.5 -17h229q373 0 430 476h72l-25 -551h-1219v75h101q59 0 83 20.5
t24 59.5v1172q0 39 -21 58t-66 19h-121v75zM1046 10h53q-27 -55 -27 -103q0 -90 61 -146.5t156 -56.5q55 0 121 23l21 -33q-76 -46 -127 -62.5t-108 -16.5q-107 0 -169 55t-62 140q0 119 81 200z" />
    <glyph glyph-name="eogonek" unicode="&#x119;" horiz-adv-x="1024" 
d="M946 462h-671q5 -214 80 -302q86 -99 219 -99q196 0 315 223l65 -28q-146 -284 -422 -284q-188 0 -316.5 136t-128.5 348q0 228 126.5 368.5t311.5 140.5q136 0 235 -70t149 -201q35 -92 37 -232zM275 533h406q36 0 56 24.5t20 83.5q0 110 -68.5 187t-161.5 77
q-104 0 -176.5 -93t-75.5 -279zM526 10h53q-27 -55 -27 -103q0 -90 61 -146.5t156 -56.5q55 0 121 23l21 -33q-76 -46 -127 -62.5t-108 -16.5q-107 0 -169 55t-62 140q0 119 81 200z" />
    <glyph glyph-name="Ecaron" unicode="&#x11a;" horiz-adv-x="1479" 
d="M134 1479h1172l28 -499h-67q-40 236 -126.5 330t-225.5 94h-290q-35 0 -53 -19t-18 -58v-527h127q102 0 165.5 73t68.5 224h69v-685h-69q-5 170 -69.5 243.5t-175.5 73.5h-116v-588q0 -32 21.5 -49t71.5 -17h229q373 0 430 476h72l-25 -551h-1219v75h101q59 0 83 20.5
t24 59.5v1172q0 39 -21 58t-66 19h-121v75zM460 1989h64l215 -200l216 200h64l-241 -348h-85z" />
    <glyph glyph-name="ecaron" unicode="&#x11b;" horiz-adv-x="1024" 
d="M946 462h-671q5 -214 80 -302q86 -99 219 -99q196 0 315 223l65 -28q-146 -284 -422 -284q-188 0 -316.5 136t-128.5 348q0 228 126.5 368.5t311.5 140.5q136 0 235 -70t149 -201q35 -92 37 -232zM275 533h406q36 0 56 24.5t20 83.5q0 110 -68.5 187t-161.5 77
q-104 0 -176.5 -93t-75.5 -279zM215 1496h64l215 -200l216 200h64l-241 -348h-85z" />
    <glyph glyph-name="IJ" unicode="&#x132;" horiz-adv-x="1972" 
d="M758 75v-75h-682v75h129q68 0 88 19.5t20 87.5v1115q0 71 -22.5 89t-85.5 18h-129v75h682v-75h-129q-68 0 -88 -19.5t-20 -87.5v-1115q0 -70 22.5 -88.5t85.5 -18.5h129zM1256 1479h654v-75h-88q-68 0 -87.5 -19.5t-19.5 -87.5v-930q0 -174 -125 -284.5t-325 -110.5
q-181 0 -291 107t-110 253q0 108 55.5 177t141.5 69q68 0 112 -43.5t44 -111.5q0 -59 -37 -97.5t-82 -38.5q-18 0 -50 10q-27 8 -36 8q-38 0 -38 -56q0 -80 79 -139t182 -59q128 0 198.5 90t70.5 238v918q0 71 -22 89t-86 18h-140v75z" />
    <glyph glyph-name="ij" unicode="&#x133;" horiz-adv-x="1251" 
d="M421 1385q0 -46 -33 -79t-79 -33q-47 0 -80 33t-33 79q0 47 33 80t80 33q46 0 79 -33t33 -80zM1077 1385q0 -46 -33 -79t-79 -33q-47 0 -80 33t-33 79q0 47 33 80t80 33q46 0 79 -33t33 -80zM1065 951v-896q0 -189 -105.5 -321.5t-239.5 -132.5q-138 0 -138 119
q0 54 30.5 82.5t71.5 28.5q70 0 91 -91q10 -45 35 -45q46 0 69 88.5t23 181.5v789q0 113 -136 113h-85v70zM49 937l372 11v-806q0 -67 74 -67h106v-75h-532v75h99q85 0 85 84v590q0 113 -127 113h-77v75z" />
    <glyph glyph-name="Lacute" unicode="&#x139;" horiz-adv-x="1366" 
d="M64 1479h685v-75h-164q-39 0 -57.5 -20.5t-18.5 -64.5v-1167q0 -42 23.5 -59.5t94.5 -17.5h208q166 0 271.5 110.5t153.5 383.5h70l-34 -569h-1232v75h121q62 0 87 23.5t25 75.5v1155q0 37 -21 56t-62 19h-150v75zM498 1587l-25 25l171 245q70 102 98.5 124t57.5 22
q33 0 58 -24.5t25 -55.5q0 -50 -71 -103z" />
    <glyph glyph-name="lacute" unicode="&#x13a;" horiz-adv-x="645" 
d="M420 1496v-1358q0 -28 17 -43q25 -20 61 -20h99v-75h-530v75h94q46 0 68.5 22t22.5 62v1140q0 50 -27 73q-37 32 -91 32h-84v75zM178 1587l-25 25l171 245q70 102 98.5 124t57.5 22q33 0 58 -24.5t25 -55.5q0 -50 -71 -103z" />
    <glyph glyph-name="Lcaron" unicode="&#x13d;" horiz-adv-x="1366" 
d="M64 1479h685v-75h-164q-39 0 -57.5 -20.5t-18.5 -64.5v-1167q0 -42 23.5 -59.5t94.5 -17.5h208q166 0 271.5 110.5t153.5 383.5h70l-34 -569h-1232v75h121q62 0 87 23.5t25 75.5v1155q0 37 -21 56t-62 19h-150v75zM895 1179l-16 36q102 43 102 114q0 19 -18 19
q-4 0 -17 -2q-16 -3 -25 -3q-37 0 -63.5 23.5t-26.5 54.5q0 30 26.5 53t70.5 23q55 0 89 -34t34 -91q0 -132 -156 -193z" />
    <glyph glyph-name="lcaron" unicode="&#x13e;" horiz-adv-x="789" 
d="M420 1496v-1358q0 -28 17 -43q25 -20 61 -20h99v-75h-530v75h94q46 0 68.5 22t22.5 62v1140q0 50 -27 73q-37 32 -91 32h-84v75zM648 1179l-16 36q102 43 102 114q0 19 -18 19q-4 0 -17 -2q-16 -3 -25 -3q-37 0 -63.5 23.5t-26.5 54.5q0 30 26.5 53t70.5 23q55 0 89 -34
t34 -91q0 -132 -156 -193z" />
    <glyph glyph-name="Ldot" unicode="&#x13f;" horiz-adv-x="1366" 
d="M64 1479h685v-75h-164q-39 0 -57.5 -20.5t-18.5 -64.5v-1167q0 -42 23.5 -59.5t94.5 -17.5h208q166 0 271.5 110.5t153.5 383.5h70l-34 -569h-1232v75h121q62 0 87 23.5t25 75.5v1155q0 37 -21 56t-62 19h-150v75zM895 851q43 0 73 -30t30 -71q0 -43 -30.5 -74t-72.5 -31
t-72 31t-30 74q0 42 30 71.5t72 29.5z" />
    <glyph glyph-name="ldot" unicode="&#x140;" horiz-adv-x="670" 
d="M420 1496v-1358q0 -28 17 -43q25 -20 61 -20h99v-75h-530v75h94q46 0 68.5 22t22.5 62v1140q0 50 -27 73q-37 32 -91 32h-84v75zM590 851q43 0 73 -30t30 -71q0 -43 -30.5 -74t-72.5 -31t-72 31t-30 74q0 42 30 71.5t72 29.5z" />
    <glyph glyph-name="Nacute" unicode="&#x143;" horiz-adv-x="1669" 
d="M84 1479h353l892 -1162v841q0 127 -58 188q-53 56 -158 58v75h517v-75q-79 0 -118 -22t-68 -80t-29 -127v-1175h-94l-923 1209v-892q0 -121 61 -180.5t189 -61.5v-75h-564v75q106 4 168 69.5t62 160.5v1003l-17 18q-50 54 -71 64q-29 14 -75 14h-67v75zM708 1587l-25 25
l171 245q70 102 98.5 124t57.5 22q33 0 58 -24.5t25 -55.5q0 -50 -71 -103z" />
    <glyph glyph-name="nacute" unicode="&#x144;" horiz-adv-x="1251" 
d="M67 937l311 19q19 -88 28 -206q63 102 148.5 153t193.5 51q93 0 156 -36.5t101 -115.5t38 -177v-456q0 -51 23 -72.5t77 -21.5h66v-75h-494v75h47q66 0 92 21t26 63v401q0 131 -40 194q-56 90 -170 90q-113 0 -188.5 -91t-75.5 -237v-347q0 -51 23.5 -72.5t77.5 -21.5h65
v-75h-496v75h65q49 0 74.5 20t25.5 50v605q0 60 -32.5 91t-93.5 31h-48v65zM498 1094l-25 25l171 245q70 102 98.5 124t57.5 22q33 0 58 -24.5t25 -55.5q0 -50 -71 -103z" />
    <glyph glyph-name="Ncaron" unicode="&#x147;" horiz-adv-x="1669" 
d="M84 1479h353l892 -1162v841q0 127 -58 188q-53 56 -158 58v75h517v-75q-79 0 -118 -22t-68 -80t-29 -127v-1175h-94l-923 1209v-892q0 -121 61 -180.5t189 -61.5v-75h-564v75q106 4 168 69.5t62 160.5v1003l-17 18q-50 54 -71 64q-29 14 -75 14h-67v75zM540 1989h64
l215 -200l216 200h64l-241 -348h-85z" />
    <glyph glyph-name="ncaron" unicode="&#x148;" horiz-adv-x="1251" 
d="M67 937l311 19q19 -88 28 -206q63 102 148.5 153t193.5 51q93 0 156 -36.5t101 -115.5t38 -177v-456q0 -51 23 -72.5t77 -21.5h66v-75h-494v75h47q66 0 92 21t26 63v401q0 131 -40 194q-56 90 -170 90q-113 0 -188.5 -91t-75.5 -237v-347q0 -51 23.5 -72.5t77.5 -21.5h65
v-75h-496v75h65q49 0 74.5 20t25.5 50v605q0 60 -32.5 91t-93.5 31h-48v65zM330 1496h64l215 -200l216 200h64l-241 -348h-85z" />
    <glyph glyph-name="napostrophe" unicode="&#x149;" horiz-adv-x="1500" 
d="M316 937l311 19q19 -88 28 -206q63 102 148.5 153t193.5 51q93 0 156 -36.5t101 -115.5t38 -177v-456q0 -51 23 -72.5t77 -21.5h66v-75h-494v75h47q66 0 92 21t26 63v401q0 131 -40 194q-56 90 -170 90q-113 0 -188.5 -91t-75.5 -237v-347q0 -51 23.5 -72.5t77.5 -21.5
h65v-75h-496v75h65q49 0 74.5 20t25.5 50v605q0 60 -32.5 91t-93.5 31h-48v65zM11 943l-32 45q99 71 145.5 140.5t46.5 119.5q0 17 -5.5 25.5t-17.5 8.5l-10 -2q-24 -6 -41 -6q-44 0 -75.5 32.5t-31.5 78.5q0 51 33.5 88t77.5 37q64 0 113 -54t49 -139q0 -101 -57.5 -192.5
t-194.5 -181.5z" />
    <glyph glyph-name="Odblacute" unicode="&#x150;" horiz-adv-x="1593" 
d="M784 1510q187 0 350.5 -98.5t256 -275t92.5 -397.5t-93 -399t-255.5 -277.5t-344.5 -99.5q-178 0 -334 97.5t-250.5 279t-94.5 402.5q0 218 91.5 393.5t250.5 275t331 99.5zM800 1433q-195 0 -316 -162t-121 -528q0 -397 124 -549t307 -152q128 0 225 69t154.5 219
t57.5 394q0 266 -54 415.5t-154 221.5t-223 72zM922 1587l-25 25l170 245q71 102 99.5 124t56.5 22q33 0 58.5 -24t25.5 -56q0 -50 -71 -103zM518 1587l-25 25l171 245q70 102 98.5 124t57.5 22q33 0 58 -24.5t25 -55.5q0 -50 -71 -103z" />
    <glyph glyph-name="odblacute" unicode="&#x151;" horiz-adv-x="1024" 
d="M509 965q189 0 317.5 -136.5t128.5 -359.5q0 -154 -57.5 -262.5t-164 -171.5t-229.5 -63q-182 0 -308.5 138t-126.5 358q0 221 127 359t313 138zM509 894q-112 0 -184 -101.5t-72 -320.5q0 -223 71.5 -326t184.5 -103q117 0 189.5 103t72.5 337q0 217 -71.5 314
t-190.5 97zM693 1094l-25 25l170 245q71 102 99.5 124t56.5 22q33 0 58.5 -24t25.5 -56q0 -50 -71 -103zM289 1094l-25 25l171 245q70 102 98.5 124t57.5 22q33 0 58 -24.5t25 -55.5q0 -50 -71 -103z" />
    <glyph glyph-name="Racute" unicode="&#x154;" horiz-adv-x="1479" 
d="M52 1479h764q222 0 344.5 -101t122.5 -265q0 -98 -48.5 -174.5t-140 -122t-287.5 -65.5q143 -39 197 -76.5t86.5 -97t74.5 -242.5q30 -131 64 -179q26 -37 56 -37q31 0 57.5 45.5t32.5 160.5h68q-19 -340 -251 -340q-73 0 -126.5 37t-80.5 109q-21 54 -47 283
q-15 133 -47.5 189t-101.5 90t-165 34h-121v-581q0 -37 19 -52q24 -19 75 -19h142v-75h-687v75h145q48 0 70.5 19t22.5 52v1182q0 38 -23 57t-70 19h-145v75zM503 799h175q176 0 275.5 66.5t99.5 236.5q0 117 -37.5 185t-98.5 93t-240 25q-118 0 -146 -16.5t-28 -56.5v-533z
M628 1587l-25 25l171 245q70 102 98.5 124t57.5 22q33 0 58 -24.5t25 -55.5q0 -50 -71 -103z" />
    <glyph glyph-name="racute" unicode="&#x155;" horiz-adv-x="909" 
d="M52 937l337 17v-379q54 187 130 283t188 96q76 0 121.5 -46.5t45.5 -124.5q0 -63 -30.5 -98t-76.5 -35q-45 0 -72.5 30t-27.5 81q0 33 16 62q15 26 15 31q0 15 -19 15q-41 0 -93 -48q-72 -67 -111 -184q-60 -182 -60 -291v-201q0 -34 24 -52t82 -18h119v-75h-582v75h93
q47 0 71 18.5t24 44.5v597q0 68 -29 99.5t-83 31.5h-82v71zM378 1094l-25 25l171 245q70 102 98.5 124t57.5 22q33 0 58 -24.5t25 -55.5q0 -50 -71 -103z" />
    <glyph glyph-name="Rcaron" unicode="&#x158;" horiz-adv-x="1479" 
d="M52 1479h764q222 0 344.5 -101t122.5 -265q0 -98 -48.5 -174.5t-140 -122t-287.5 -65.5q143 -39 197 -76.5t86.5 -97t74.5 -242.5q30 -131 64 -179q26 -37 56 -37q31 0 57.5 45.5t32.5 160.5h68q-19 -340 -251 -340q-73 0 -126.5 37t-80.5 109q-21 54 -47 283
q-15 133 -47.5 189t-101.5 90t-165 34h-121v-581q0 -37 19 -52q24 -19 75 -19h142v-75h-687v75h145q48 0 70.5 19t22.5 52v1182q0 38 -23 57t-70 19h-145v75zM503 799h175q176 0 275.5 66.5t99.5 236.5q0 117 -37.5 185t-98.5 93t-240 25q-118 0 -146 -16.5t-28 -56.5v-533z
M460 1989h64l215 -200l216 200h64l-241 -348h-85z" />
    <glyph glyph-name="rcaron" unicode="&#x159;" horiz-adv-x="909" 
d="M52 937l337 17v-379q54 187 130 283t188 96q76 0 121.5 -46.5t45.5 -124.5q0 -63 -30.5 -98t-76.5 -35q-45 0 -72.5 30t-27.5 81q0 33 16 62q15 26 15 31q0 15 -19 15q-41 0 -93 -48q-72 -67 -111 -184q-60 -182 -60 -291v-201q0 -34 24 -52t82 -18h119v-75h-582v75h93
q47 0 71 18.5t24 44.5v597q0 68 -29 99.5t-83 31.5h-82v71zM140 1496h64l215 -200l216 200h64l-241 -348h-85z" />
    <glyph glyph-name="Sacute" unicode="&#x15a;" horiz-adv-x="1290" 
d="M947 1367l90 129h73l6 -539h-66q-62 248 -183.5 362t-279.5 114q-132 0 -216 -79t-84 -193q0 -71 32 -124.5t95.5 -87t239.5 -71.5q247 -54 346.5 -109t148.5 -138.5t49 -195.5q0 -200 -134.5 -331.5t-347.5 -131.5q-229 0 -398 148l-113 -138h-72v573h72
q42 -237 188 -374t329 -137q148 0 241.5 87.5t93.5 212.5q0 71 -35 124.5t-111 90t-299 88.5q-245 58 -334 130q-125 102 -125 289q0 195 124.5 319.5t318.5 124.5q93 0 177 -33t174 -110zM578 1587l-25 25l171 245q70 102 98.5 124t57.5 22q33 0 58 -24.5t25 -55.5
q0 -50 -71 -103z" />
    <glyph glyph-name="sacute" unicode="&#x15b;" horiz-adv-x="948" 
d="M179 353q62 -173 142.5 -239.5t198.5 -66.5q109 0 167.5 47.5t58.5 120.5q0 42 -21.5 73.5t-59.5 47t-197 45.5q-152 30 -212 63t-93.5 91t-33.5 126q0 103 69 187q89 107 249 107q122 0 226 -77l66 70h41l26 -334h-67q-44 142 -119 204.5t-185 62.5q-95 0 -149 -46.5
t-54 -113.5q0 -59 50 -98q49 -40 192 -63q166 -28 216 -47q82 -30 127 -92.5t45 -152.5q0 -124 -97.5 -210t-247.5 -86q-139 0 -258 92l-73 -84h-53l-20 373h66zM323 1094l-25 25l171 245q70 102 98.5 124t57.5 22q33 0 58 -24.5t25 -55.5q0 -50 -71 -103z" />
    <glyph glyph-name="Tcedilla" unicode="&#x162;" horiz-adv-x="1366" 
d="M90 1479h1200l29 -559h-69q-68 493 -356 493q-58 0 -79.5 -20t-21.5 -66v-1182q0 -36 21 -53t69 -17h149v-75h-687v75h170q34 0 52 17t18 45v1199q0 38 -23 57.5t-74 19.5q-145 0 -242 -137q-80 -113 -115 -356h-73zM655 -421l-16 36q102 43 102 114q0 19 -18 19
q-4 0 -17 -2q-16 -3 -25 -3q-37 0 -63.5 23.5t-26.5 54.5q0 30 26.5 53t70.5 23q55 0 89 -34t34 -91q0 -132 -156 -193z" />
    <glyph glyph-name="tcedilla" unicode="&#x163;" horiz-adv-x="797" 
d="M313 1319h68v-382h303v-92h-303v-601q0 -78 37 -119.5t94 -41.5q68 0 116 63t56 208h67q-6 -187 -85 -277.5t-205 -90.5q-116 0 -181.5 63.5t-65.5 166.5v629h-163v70q111 19 169 93q86 111 93 311zM345 -421l-16 36q102 43 102 114q0 19 -18 19q-4 0 -17 -2
q-16 -3 -25 -3q-37 0 -63.5 23.5t-26.5 54.5q0 30 26.5 53t70.5 23q55 0 89 -34t34 -91q0 -132 -156 -193z" />
    <glyph glyph-name="Tcaron" unicode="&#x164;" horiz-adv-x="1366" 
d="M90 1479h1200l29 -559h-69q-68 493 -356 493q-58 0 -79.5 -20t-21.5 -66v-1182q0 -36 21 -53t69 -17h149v-75h-687v75h170q34 0 52 17t18 45v1199q0 38 -23 57.5t-74 19.5q-145 0 -242 -137q-80 -113 -115 -356h-73zM420 1989h64l215 -200l216 200h64l-241 -348h-85z" />
    <glyph glyph-name="tcaron" unicode="&#x165;" horiz-adv-x="797" 
d="M313 1319h68v-382h303v-92h-303v-601q0 -78 37 -119.5t94 -41.5q68 0 116 63t56 208h67q-6 -187 -85 -277.5t-205 -90.5q-116 0 -181.5 63.5t-65.5 166.5v629h-163v70q111 19 169 93q86 111 93 311zM565 1179l-16 36q102 43 102 114q0 19 -18 19q-4 0 -17 -2
q-16 -3 -25 -3q-37 0 -63.5 23.5t-26.5 54.5q0 30 26.5 53t70.5 23q55 0 89 -34t34 -91q0 -132 -156 -193z" />
    <glyph glyph-name="Uring" unicode="&#x16e;" horiz-adv-x="1669" 
d="M54 1479h683v-75h-137q-55 0 -77 -18t-22 -55v-835q0 -131 23 -198q34 -99 124.5 -158t236.5 -59q202 0 308 104.5t106 279.5v679q0 90 -12.5 136.5t-36 72.5t-59.5 38.5t-120 12.5v75h559v-75h-40q-94 0 -140 -50.5t-46 -146.5v-727q0 -238 -136 -365
q-153 -143 -407 -143q-220 0 -346 62.5t-183 179.5q-43 89 -43 224v893q0 34 -23.5 53.5t-70.5 19.5h-141v75zM860 2019q84 0 145 -61t61 -146q0 -87 -61 -148.5t-148 -61.5q-86 0 -147 60.5t-61 146.5q0 87 61.5 148.5t149.5 61.5zM859 1937q-53 0 -90.5 -37.5t-37.5 -90.5
q0 -52 37 -88.5t90 -36.5q51 0 88.5 37.5t37.5 89.5q0 53 -36.5 89.5t-88.5 36.5z" />
    <glyph glyph-name="uring" unicode="&#x16f;" horiz-adv-x="1251" 
d="M388 954v-621q0 -114 57.5 -176t148.5 -62q112 0 190.5 90.5t78.5 226.5v351q0 48 -34.5 74.5t-132.5 29.5v70l329 17v-769q0 -53 30 -81.5t84 -28.5h59v-67l-315 -8l-20 185q-84 -99 -169 -149t-172 -50q-127 0 -213 85q-87 84 -87 285v407q0 54 -43 82q-30 20 -123 22
v70zM610 1526q84 0 145 -61t61 -146q0 -87 -61 -148.5t-148 -61.5q-86 0 -147 60.5t-61 146.5q0 87 61.5 148.5t149.5 61.5zM609 1444q-53 0 -90.5 -37.5t-37.5 -90.5q0 -52 37 -88.5t90 -36.5q51 0 88.5 37.5t37.5 89.5q0 53 -36.5 89.5t-88.5 36.5z" />
    <glyph glyph-name="Udblacute" unicode="&#x170;" horiz-adv-x="1669" 
d="M54 1479h683v-75h-137q-55 0 -77 -18t-22 -55v-835q0 -131 23 -198q34 -99 124.5 -158t236.5 -59q202 0 308 104.5t106 279.5v679q0 90 -12.5 136.5t-36 72.5t-59.5 38.5t-120 12.5v75h559v-75h-40q-94 0 -140 -50.5t-46 -146.5v-727q0 -238 -136 -365
q-153 -143 -407 -143q-220 0 -346 62.5t-183 179.5q-43 89 -43 224v893q0 34 -23.5 53.5t-70.5 19.5h-141v75zM1022 1587l-25 25l170 245q71 102 99.5 124t56.5 22q33 0 58.5 -24t25.5 -56q0 -50 -71 -103zM618 1587l-25 25l171 245q70 102 98.5 124t57.5 22q33 0 58 -24.5
t25 -55.5q0 -50 -71 -103z" />
    <glyph glyph-name="udblacute" unicode="&#x171;" horiz-adv-x="1251" 
d="M388 954v-621q0 -114 57.5 -176t148.5 -62q112 0 190.5 90.5t78.5 226.5v351q0 48 -34.5 74.5t-132.5 29.5v70l329 17v-769q0 -53 30 -81.5t84 -28.5h59v-67l-315 -8l-20 185q-84 -99 -169 -149t-172 -50q-127 0 -213 85q-87 84 -87 285v407q0 54 -43 82q-30 20 -123 22
v70zM772 1094l-25 25l170 245q71 102 99.5 124t56.5 22q33 0 58.5 -24t25.5 -56q0 -50 -71 -103zM368 1094l-25 25l171 245q70 102 98.5 124t57.5 22q33 0 58 -24.5t25 -55.5q0 -50 -71 -103z" />
    <glyph glyph-name="Zacute" unicode="&#x179;" horiz-adv-x="1251" 
d="M150 1479h1007v-75l-845 -1329h321q138 0 226 45t142.5 134.5t99.5 300.5h70l-27 -555h-1070v67l853 1337h-305q-125 0 -194 -29q-94 -39 -153 -139.5t-83 -268.5h-70zM478 1587l-25 25l171 245q70 102 98.5 124t57.5 22q33 0 58 -24.5t25 -55.5q0 -50 -71 -103z" />
    <glyph glyph-name="zacute" unicode="&#x17a;" horiz-adv-x="985" 
d="M151 937h743v-60l-589 -802h287q99 0 158 62t91 230h67l-22 -367h-788v69l588 797h-249q-78 0 -116.5 -21.5t-66.5 -71t-52 -170.5h-74zM378 1094l-25 25l171 245q70 102 98.5 124t57.5 22q33 0 58 -24.5t25 -55.5q0 -50 -71 -103z" />
    <glyph glyph-name="Zdot" unicode="&#x17b;" horiz-adv-x="1251" 
d="M150 1479h1007v-75l-845 -1329h321q138 0 226 45t142.5 134.5t99.5 300.5h70l-27 -555h-1070v67l853 1337h-305q-125 0 -194 -29q-94 -39 -153 -139.5t-83 -268.5h-70zM611 1929q43 0 73 -29.5t30 -71.5q0 -43 -30.5 -73.5t-72.5 -30.5t-72 30.5t-30 73.5q0 42 30 71.5
t72 29.5z" />
    <glyph glyph-name="zdot" unicode="&#x17c;" horiz-adv-x="985" 
d="M151 937h743v-60l-589 -802h287q99 0 158 62t91 230h67l-22 -367h-788v69l588 797h-249q-78 0 -116.5 -21.5t-66.5 -71t-52 -170.5h-74zM491 1436q43 0 73 -29.5t30 -71.5q0 -43 -30.5 -73.5t-72.5 -30.5t-72 30.5t-30 73.5q0 42 30 71.5t72 29.5z" />
    <glyph glyph-name="noGamma" unicode="&#xf100;" horiz-adv-x="1322" 
d="M1252 1356l14 -310h-36q-21 142 -109.5 183.5t-214.5 41.5h-403v-1100q-1 -60 44 -96.5t154 -38.5v-36h-605v36q101 0 147.5 33.5t46.5 126.5v970q0 84 -44.5 119t-149.5 35v36h1156z" />
    <glyph glyph-name="noTheta" unicode="&#xf101;" horiz-adv-x="1599" 
d="M1488 681q0 -298 -202 -505t-482 -207t-486.5 208t-206.5 502q0 290 201 499t487 209q282 0 485.5 -205.5t203.5 -500.5zM1244 674q0 289 -119.5 462t-328.5 173q-204 0 -322.5 -169t-118.5 -459q0 -292 123 -463.5t323 -171.5q209 0 326 176t117 452zM559 916h36
q-1 -81 34.5 -118.5t114.5 -37.5h111q78 0 114 37t35 119h36v-480h-36q1 83 -34.5 121t-114.5 38h-111q-78 0 -114 -38t-35 -121h-36v480z" />
    <glyph glyph-name="noPhi" unicode="&#xf102;" horiz-adv-x="1599" 
d="M907 191q12 -155 192 -155v-36h-598v36q175 0 191 155q-265 0 -423 142.5t-158 344.5q0 219 168 353t413 134q-12 155 -191 155v36h598v-36q-179 0 -192 -155q265 0 423.5 -142t158.5 -345q0 -222 -169 -354.5t-413 -132.5zM692 1110q-115 -3 -203 -56.5t-125 -142
t-37 -245.5q0 -405 365 -420v864zM907 1110v-864q140 0 253 92.5t113 351.5q0 405 -366 420z" />
    <glyph glyph-name="noalpha" unicode="&#xf103;" horiz-adv-x="1084" 
d="M782 916h166l-100 -467q-23 -108 -51 -189q20 -169 118 -169q84 0 103 130h36q-11 -118 -55.5 -183.5t-107.5 -65.5q-92 0 -120 215q-106 -215 -339 -215q-165 0 -258.5 127.5t-93.5 354.5q0 231 104 360t251 129q199 0 286 -315zM701 537q-100 348 -248 348
q-84 0 -135.5 -110t-51.5 -332q0 -235 48.5 -321.5t126.5 -86.5q67 0 121.5 71.5t103.5 280.5z" />
    <glyph glyph-name="nodelta" unicode="&#xf104;" horiz-adv-x="943" 
d="M483 854q-57 63 -139 134q-115 100 -140 156t-25 102q0 174 260 174q156 0 259.5 -50t103.5 -123q0 -33 -22.5 -59t-56.5 -26q-46 0 -108 68q-71 80 -113.5 105t-103.5 25q-74 0 -117 -31.5t-43 -77.5q0 -49 37.5 -96t196.5 -156q162 -111 237 -182t120 -166t45 -204
q0 -189 -130 -332t-302 -143q-156 0 -264.5 113.5t-108.5 308.5q0 190 124 313t290 147zM527 807q-287 -48 -287 -394q0 -184 73.5 -280t164.5 -96q99 0 163 95t64 258q0 119 -34 202.5t-99 159.5q-38 44 -45 55z" />
    <glyph glyph-name="noepsilon" unicode="&#xf105;" horiz-adv-x="882" 
d="M318 486q-197 78 -197 219q0 106 100.5 172t256.5 66q132 0 220 -44t88 -110q0 -35 -26 -60.5t-61 -25.5q-56 0 -92 75q-50 105 -150 105q-76 0 -128.5 -48.5t-52.5 -143.5q0 -183 188 -183q21 0 47 4q46 7 70 7q61 0 61 -36q0 -39 -61 -39q-22 0 -67 8q-34 5 -53 5
q-198 0 -198 -204q0 -99 53 -159t148 -60q119 0 158 123q21 65 45 90t65 25q33 0 61 -24t28 -65q0 -93 -104.5 -152t-244.5 -59q-149 0 -272 76t-123 204q0 156 241 234z" />
    <glyph glyph-name="nosigma" unicode="&#xf106;" horiz-adv-x="1185" 
d="M1140 916v-146h-437q105 -52 197.5 -170.5t92.5 -251.5q0 -170 -135.5 -273t-293.5 -103q-202 0 -348.5 148t-146.5 355q0 145 76 256t177 148t255 37h563zM636 770h-35q-132 0 -201.5 -29t-114 -101t-44.5 -177q0 -175 95.5 -300.5t227.5 -125.5q109 0 182 93t73 237
q0 219 -183 403z" />
    <glyph glyph-name="notau" unicode="&#xf107;" horiz-adv-x="841" 
d="M782 916v-146h-300q-37 -321 -37 -470q0 -82 35 -123t88 -41q95 0 113 116h36q0 -107 -56 -193.5t-145 -86.5q-178 0 -178 330q0 141 35 468h-88q-81 0 -127 -26.5t-85 -111.5h-36q36 118 79 180.5t85 83t115 20.5h466z" />
    <glyph glyph-name="nophi" unicode="&#xf108;" horiz-adv-x="1120" 
d="M449 943v-36q-205 -55 -205 -412q0 -392 256 -463v584q0 121 14 179.5t66.5 103t127.5 44.5q77 0 156.5 -53t133 -158t53.5 -241q0 -191 -111 -342.5t-337 -172.5v-395h-103v395q-195 18 -313 156t-118 360q0 204 112 325t268 126zM603 54q300 47 300 409q0 159 -63 272
t-155 113q-39 0 -61 -37t-22 -160z" />
    <glyph glyph-name="underscoredbl" unicode="&#x2017;" horiz-adv-x="1024" 
d="M-12 -125h1048v-103h-1048v103zM-12 -328h1048v-103h-1048v103z" />
    <glyph glyph-name="minute" unicode="&#x2032;" horiz-adv-x="418" 
d="M80 820l25 300q10 119 23.5 173.5t48 87t82.5 32.5q81 0 81 -76q0 -39 -80 -217l-136 -300h-44z" />
    <glyph glyph-name="second" unicode="&#x2033;" horiz-adv-x="797" 
d="M83 820l24 297q15 172 49.5 234t106.5 62q79 0 79 -76q0 -42 -81 -220l-134 -297h-44zM455 820l24 297q10 123 23 177t48.5 86.5t87.5 32.5q77 0 77 -74q0 -62 -75 -222l-137 -297h-48z" />
    <glyph glyph-name="exclamdbl" unicode="&#x203c;" horiz-adv-x="1100" 
d="M334 434h-52q0 271 -61 615q-39 224 -39 298q0 75 33 122t95 47q126 0 126 -172q0 -74 -40 -295q-62 -337 -62 -615zM817 434h-52q0 271 -61 615q-39 224 -39 298q0 75 32.5 122t94.5 47q126 0 126 -172q0 -74 -40 -295q-61 -337 -61 -615zM309 216q52 0 87 -36.5
t35 -86.5q0 -47 -35.5 -84t-86.5 -37q-48 0 -84.5 34.5t-36.5 86.5q0 50 34.5 86.5t86.5 36.5zM792 216q52 0 86.5 -37t34.5 -86t-36 -85t-86 -36q-49 0 -84.5 35t-35.5 86q0 50 34.5 86.5t86.5 36.5z" />
    <glyph glyph-name="nsuperior" unicode="&#x207f;" horiz-adv-x="813" 
d="M31 1402l225 12q12 -48 17 -100q81 99 213 99q109 0 156 -61.5t47 -143.5v-264q0 -34 9 -46.5t44 -12.5h55v-58h-345v58h43q42 0 53 10t11 46v228q0 165 -124 165q-71 0 -115 -55t-44 -136v-199q0 -34 9 -46.5t44 -12.5h54v-58h-346v58h54q31 0 42 10t11 37v351
q0 67 -70 67h-43v52z" />
    <glyph glyph-name="peseta" unicode="&#x20a7;" horiz-adv-x="2638" 
d="M1308 992q101 117 107 327h69v-382h303v-92h-303v-601q0 -73 34.5 -117t96.5 -44q75 0 119.5 68.5t52.5 202.5h81q100 -307 341 -307q108 0 167 47t59 121q0 48 -26.5 80.5t-68 45.5t-183.5 40q-133 26 -196.5 54.5t-103 89t-39.5 135.5q0 103 79 199t239 96
q125 0 226 -77l67 70h40l26 -334h-66q-78 267 -303 267q-101 0 -153 -49t-52 -111q0 -55 46 -95.5t196 -65.5q168 -28 234 -53.5t110 -87.5t44 -149q0 -132 -101 -215t-242 -83q-146 0 -260 92l-73 -84h-53l-9 166q-77 -160 -250 -160q-106 0 -176.5 58.5t-70.5 171.5v629
h-73q-38 -53 -158.5 -115.5t-295.5 -62.5h-264v-485q0 -70 22.5 -88.5t84.5 -18.5h157v-75h-709v75h126q67 0 87 19.5t20 87.5v1115q0 71 -22 89t-85 18h-126v75h729q244 0 375.5 -110.5t131.5 -294.5q0 -43 -8 -82zM525 740h201q183 0 271.5 76.5t88.5 265.5q0 124 -38 196
t-114.5 103.5t-237.5 31.5q-106 0 -138.5 -18.5t-32.5 -75.5v-579z" />
    <glyph glyph-name="afii61248" unicode="&#x2105;" horiz-adv-x="1734" 
d="M573 908l63 -21q-52 -222 -235 -222q-115 0 -204.5 88t-89.5 270q0 191 92.5 290.5t212.5 99.5q93 0 153.5 -59t60.5 -128q0 -44 -23.5 -74t-60.5 -30q-34 0 -57 24.5t-23 60.5t25 68q7 9 7 15q0 2 -1 6q-2 20 -23.5 36t-55.5 16q-77 0 -121 -84.5t-44 -227.5
q0 -130 44.5 -212.5t124.5 -82.5q104 0 155 167zM1272 1387h99l-954 -1387h-99zM1330 727q118 0 208 -97t90 -278q0 -192 -96 -282.5t-205 -90.5q-113 0 -202 97.5t-89 276.5q0 161 82.5 267.5t211.5 106.5zM1330 662q-71 0 -111.5 -80t-40.5 -222q0 -171 45 -243t108 -72
q155 0 155 318q0 299 -156 299z" />
    <glyph glyph-name="afii61289" unicode="&#x2113;" horiz-adv-x="865" 
d="M35 326l198 199v496q0 192 79.5 300t214.5 108q99 0 151.5 -58t52.5 -141q0 -134 -89.5 -274t-248.5 -315v-333q0 -275 175 -275q163 0 249 267h37q-31 -133 -116 -230t-214 -97q-100 0 -172.5 56t-95.5 127.5t-23 217.5v96l-173 -169zM393 698q282 311 282 492
q0 81 -39 131t-101 50q-142 0 -142 -267v-406z" />
    <glyph glyph-name="arrowleft" unicode="&#x2190;" horiz-adv-x="2048" 
d="M492 876h76q-81 -170 -195 -309h1595v-101h-1595q102 -102 198 -309h-78q-223 253 -414 341v45q177 71 413 333z" />
    <glyph glyph-name="arrowup" unicode="&#x2191;" horiz-adv-x="1024" 
d="M153 1050q262 236 333 413h46q87 -192 340 -415v-77q-207 96 -309 197v-1597h-101v1597q-139 -114 -309 -195v77z" />
    <glyph glyph-name="arrowright" unicode="&#x2192;" horiz-adv-x="2048" 
d="M1555 876q237 -262 413 -333v-45q-191 -88 -414 -341h-77q95 207 197 309h-1595v101h1595q-114 139 -195 309h76z" />
    <glyph glyph-name="arrowdown" unicode="&#x2193;" horiz-adv-x="1024" 
d="M153 -16v76q170 -81 309 -195v1598h101v-1598q102 102 309 197v-77q-253 -223 -340 -414h-46q-71 176 -333 413z" />
    <glyph glyph-name="arrowboth" unicode="&#x2194;" horiz-adv-x="2048" 
d="M1968 540v-45q-181 -79 -406 -337h-80q69 172 194 311h-1305q125 -139 194 -311h-80q-224 258 -406 337v45q182 79 406 338h80q-69 -172 -194 -311h1305q-125 139 -194 311h80q225 -259 406 -338z" />
    <glyph glyph-name="arrowupdn" unicode="&#x2195;" horiz-adv-x="1024" 
d="M489 1463h45q79 -182 337 -407v-80q-171 69 -311 195v-1306q140 126 311 194v-79q-258 -225 -337 -407h-45q-79 182 -337 407v79q171 -68 311 -194v1306q-140 -126 -311 -195v80q258 225 337 407z" />
    <glyph glyph-name="arrowupdnbse" unicode="&#x21a8;" horiz-adv-x="1024" 
d="M489 1463h45q79 -182 337 -407v-80q-171 69 -311 195v-1306q140 126 311 194v-79q-258 -225 -337 -407h-45q-79 182 -337 407v79q171 -68 311 -194v1306q-140 -126 -311 -195v80q258 225 337 407zM154 -522h717v-98h-717v98z" />
    <glyph glyph-name="orthogonal" unicode="&#x221f;" horiz-adv-x="2005" 
d="M362 1279h100v-1179h1181v-100h-1281v1279z" />
    <glyph glyph-name="intersection" unicode="&#x2229;" horiz-adv-x="1473" 
d="M301 0h-109v588q0 267 12.5 373.5t75.5 209t188.5 172.5t267.5 70q144 0 268.5 -70.5t186 -168t76 -206t14.5 -380.5v-588h-110v595q0 232 -11.5 333.5t-59.5 183t-149.5 138.5t-214.5 57q-114 0 -216 -58.5t-148 -137t-58.5 -181t-12.5 -335.5v-595z" />
    <glyph glyph-name="equivalence" unicode="&#x2261;" horiz-adv-x="1241" 
d="M69 1209h1104v-133h-1104v133zM69 759h1104v-133h-1104v133zM69 308h1104v-133h-1104v133z" />
    <glyph glyph-name="H22073" unicode="&#x25a1;" horiz-adv-x="1237" 
d="M146 944h944v-944h-944v944zM222 868v-792h792v792h-792z" />
    <glyph glyph-name="H18543" unicode="&#x25aa;" horiz-adv-x="727" 
d="M635 948v-543h-543v543h543z" />
    <glyph glyph-name="H18551" unicode="&#x25ab;" horiz-adv-x="727" 
d="M635 948v-543h-543v543h543zM559 872h-391v-391h391v391z" />
    <glyph glyph-name="H18533" unicode="&#x25cf;" horiz-adv-x="1237" 
d="M1059 578q0 -182 -129.5 -311.5t-310.5 -129.5q-183 0 -312 129t-129 312q0 182 129.5 311t311.5 129q181 0 310.5 -129.5t129.5 -310.5z" />
    <glyph glyph-name="openbullet" unicode="&#x25e6;" horiz-adv-x="727" 
d="M649 676q0 -118 -83.5 -202t-201.5 -84t-202 84t-84 202t84 202t202 84t201.5 -84t83.5 -202zM574 676q0 87 -62 148.5t-148 61.5t-148 -61.5t-62 -148.5q0 -86 61.5 -148t148.5 -62t148.5 62t61.5 148z" />
    <glyph glyph-name="commaaccent" unicode="&#xf004;" horiz-adv-x="682" 
d="M295 -421l-16 36q102 43 102 114q0 19 -18 19q-4 0 -17 -2q-16 -3 -25 -3q-37 0 -63.5 23.5t-26.5 54.5q0 30 26.5 53t70.5 23q55 0 89 -34t34 -91q0 -132 -156 -193z" />
    <glyph glyph-name="Amacron" unicode="&#x100;" horiz-adv-x="1479" 
d="M715 1510h67l531 -1353q32 -82 131 -82h46v-75h-590v75h47q92 0 130 20q26 14 26 43q0 17 -7 36l-123 314h-584l-69 -180q-27 -72 -27 -114q0 -49 45.5 -84t132.5 -35h50v-75h-536v75q86 0 136 37.5t92 142.5zM686 1225l-265 -659h523zM414 1886h647v-130h-647v130z" />
    <glyph glyph-name="amacron" unicode="&#x101;" horiz-adv-x="1139" 
d="M1057 103l36 -56q-73 -75 -162 -75q-68 0 -114.5 37t-81.5 130q-95 -100 -167 -133.5t-173 -33.5q-144 0 -219 62t-75 159q0 146 171.5 242.5t456.5 128.5v142q0 76 -61 130t-155 54q-87 0 -150 -36q-45 -27 -45 -53q0 -15 24 -47q29 -40 29 -71q0 -45 -29 -73.5
t-76 -28.5q-50 0 -83.5 34t-33.5 87q0 99 111.5 181t292.5 82q167 0 255 -72q88 -73 88 -177v-512q0 -68 22 -100q22 -33 57 -33q39 0 82 32zM729 498q-254 -35 -360 -114q-79 -60 -79 -170q0 -77 41 -120.5t107 -43.5q118 0 204.5 89.5t86.5 224.5v134zM236 1395h647v-130
h-647v130z" />
    <glyph glyph-name="Ccircumflex" unicode="&#x108;" horiz-adv-x="1479" 
d="M1185 1364l69 143h63l26 -595h-67q-66 251 -166 370q-124 149 -296 149q-186 0 -303 -166t-117 -562q0 -333 134 -508q114 -148 320 -148q180 0 302 115.5t159 348.5h71q-31 -264 -181 -406t-378 -142q-185 0 -339.5 93t-247 267.5t-92.5 382.5q0 221 95.5 415
t244.5 291.5t321 97.5q96 0 186 -33t196 -113zM757 1988h82l239 -345h-64l-217 199l-214 -199h-64z" />
    <glyph glyph-name="ccircumflex" unicode="&#x109;" horiz-adv-x="909" 
d="M783 278l65 -19q-78 -287 -344 -287q-195 0 -319 129t-124 343q0 248 136 384.5t320 136.5q138 0 228 -76t90 -169q0 -56 -33.5 -92.5t-79.5 -36.5q-45 0 -76 31t-31 75t34 84q16 19 16 30q0 29 -39 56.5t-106 27.5q-122 0 -185 -89q-90 -129 -90 -340q0 -201 80 -304.5
t204 -103.5q171 0 254 220zM426 1496h82l239 -345h-64l-217 199l-214 -199h-64z" />
    <glyph glyph-name="Cdot" unicode="&#x10a;" horiz-adv-x="1479" 
d="M1185 1364l69 143h63l26 -595h-67q-66 251 -166 370q-124 149 -296 149q-186 0 -303 -166t-117 -562q0 -333 134 -508q114 -148 320 -148q180 0 302 115.5t159 348.5h71q-31 -264 -181 -406t-378 -142q-185 0 -339.5 93t-247 267.5t-92.5 382.5q0 221 95.5 415
t244.5 291.5t321 97.5q96 0 186 -33t196 -113zM785 1860q43 0 73 -29.5t30 -71.5q0 -43 -30.5 -73.5t-72.5 -30.5t-72 30.5t-30 73.5q0 42 30 71.5t72 29.5z" />
    <glyph glyph-name="cdot" unicode="&#x10b;" horiz-adv-x="909" 
d="M783 278l65 -19q-78 -287 -344 -287q-195 0 -319 129t-124 343q0 248 136 384.5t320 136.5q138 0 228 -76t90 -169q0 -56 -33.5 -92.5t-79.5 -36.5q-45 0 -76 31t-31 75t34 84q16 19 16 30q0 29 -39 56.5t-106 27.5q-122 0 -185 -89q-90 -129 -90 -340q0 -201 80 -304.5
t204 -103.5q171 0 254 220zM504 1369q43 0 73 -29.5t30 -71.5q0 -43 -30.5 -73.5t-72.5 -30.5t-72 30.5t-30 73.5q0 42 30 71.5t72 29.5z" />
    <glyph glyph-name="Emacron" unicode="&#x112;" horiz-adv-x="1479" 
d="M134 1479h1172l28 -499h-67q-40 236 -126.5 330t-225.5 94h-290q-35 0 -53 -19t-18 -58v-527h127q102 0 165.5 73t68.5 224h69v-685h-69q-5 170 -69.5 243.5t-175.5 73.5h-116v-588q0 -32 21.5 -49t71.5 -17h229q373 0 430 476h72l-25 -551h-1219v75h101q59 0 83 20.5
t24 59.5v1172q0 39 -21 58t-66 19h-121v75zM433 1886h647v-130h-647v130z" />
    <glyph glyph-name="emacron" unicode="&#x113;" horiz-adv-x="1024" 
d="M946 462h-671q5 -214 80 -302q86 -99 219 -99q196 0 315 223l65 -28q-146 -284 -422 -284q-188 0 -316.5 136t-128.5 348q0 228 126.5 368.5t311.5 140.5q136 0 235 -70t149 -201q35 -92 37 -232zM275 533h406q36 0 56 24.5t20 83.5q0 110 -68.5 187t-161.5 77
q-104 0 -176.5 -93t-75.5 -279zM197 1395h647v-130h-647v130z" />
    <glyph glyph-name="Ebreve" unicode="&#x114;" horiz-adv-x="1479" 
d="M134 1479h1172l28 -499h-67q-40 236 -126.5 330t-225.5 94h-290q-35 0 -53 -19t-18 -58v-527h127q102 0 165.5 73t68.5 224h69v-685h-69q-5 170 -69.5 243.5t-175.5 73.5h-116v-588q0 -32 21.5 -49t71.5 -17h229q373 0 430 476h72l-25 -551h-1219v75h101q59 0 83 20.5
t24 59.5v1172q0 39 -21 58t-66 19h-121v75zM452 1970h63q26 -65 81.5 -97t154.5 -32q102 0 167 36q49 28 75 93h66q-9 -105 -50.5 -172.5t-109.5 -106.5t-147 -39q-118 0 -199.5 80.5t-100.5 237.5z" />
    <glyph glyph-name="ebreve" unicode="&#x115;" horiz-adv-x="1024" 
d="M946 462h-671q5 -214 80 -302q86 -99 219 -99q196 0 315 223l65 -28q-146 -284 -422 -284q-188 0 -316.5 136t-128.5 348q0 228 126.5 368.5t311.5 140.5q136 0 235 -70t149 -201q35 -92 37 -232zM275 533h406q36 0 56 24.5t20 83.5q0 110 -68.5 187t-161.5 77
q-104 0 -176.5 -93t-75.5 -279zM217 1479h63q26 -65 81.5 -97t154.5 -32q102 0 167 36q49 28 75 93h66q-9 -105 -50.5 -172.5t-109.5 -106.5t-147 -39q-118 0 -199.5 80.5t-100.5 237.5z" />
    <glyph glyph-name="Edot" unicode="&#x116;" horiz-adv-x="1479" 
d="M134 1479h1172l28 -499h-67q-40 236 -126.5 330t-225.5 94h-290q-35 0 -53 -19t-18 -58v-527h127q102 0 165.5 73t68.5 224h69v-685h-69q-5 170 -69.5 243.5t-175.5 73.5h-116v-588q0 -32 21.5 -49t71.5 -17h229q373 0 430 476h72l-25 -551h-1219v75h101q59 0 83 20.5
t24 59.5v1172q0 39 -21 58t-66 19h-121v75zM756 1860q43 0 73 -29.5t30 -71.5q0 -43 -30.5 -73.5t-72.5 -30.5t-72 30.5t-30 73.5q0 42 30 71.5t72 29.5z" />
    <glyph glyph-name="edot" unicode="&#x117;" horiz-adv-x="1024" 
d="M946 462h-671q5 -214 80 -302q86 -99 219 -99q196 0 315 223l65 -28q-146 -284 -422 -284q-188 0 -316.5 136t-128.5 348q0 228 126.5 368.5t311.5 140.5q136 0 235 -70t149 -201q35 -92 37 -232zM275 533h406q36 0 56 24.5t20 83.5q0 110 -68.5 187t-161.5 77
q-104 0 -176.5 -93t-75.5 -279zM545 1369q43 0 73 -29.5t30 -71.5q0 -43 -30.5 -73.5t-72.5 -30.5t-72 30.5t-30 73.5q0 42 30 71.5t72 29.5z" />
    <glyph glyph-name="Gcircumflex" unicode="&#x11c;" horiz-adv-x="1593" 
d="M1151 1363l82 147h67l37 -590h-65q-75 255 -177 369q-130 145 -298 145q-129 0 -231 -73t-156.5 -219t-54.5 -411q0 -257 54.5 -402t150.5 -213.5t225 -68.5q175 0 270.5 98t95.5 253v139q0 33 -25.5 51t-83.5 18h-125v70h620v-70h-84q-56 0 -80 -19.5t-24 -56.5v-565
h-66q-36 132 -75 253q-75 -123 -178.5 -184.5t-234.5 -61.5q-187 0 -346.5 96t-252 270.5t-92.5 394.5q0 221 93 396t254.5 278t326.5 103q94 0 179.5 -31.5t193.5 -115.5zM779 1988h82l239 -345h-64l-217 199l-214 -199h-64z" />
    <glyph glyph-name="gcircumflex" unicode="&#x11d;" horiz-adv-x="1100" 
d="M785 884q100 101 184 101q50 0 83 -32t33 -78q0 -37 -22.5 -61.5t-52.5 -24.5q-57 0 -77 70q-8 30 -27 30q-34 0 -74 -45q43 -59 59 -102.5t16 -93.5q0 -87 -42 -153.5t-139.5 -117.5t-186.5 -51h-109q-116 0 -154 -24q-38 -25 -38 -73q0 -39 31 -60t117 -21l247 5
q187 0 269.5 -62.5t82.5 -171.5q0 -120 -94 -202q-131 -116 -391 -116q-215 0 -319 79q-82 62 -82 139q0 59 52.5 108t176.5 73q-99 24 -149 70.5t-50 115.5q0 64 40.5 111.5t140.5 81.5q-85 47 -128 113.5t-43 152.5q0 136 107 228t278 92q70 0 135 -20t126 -61zM522 901
q-89 0 -147 -65.5t-58 -183.5q0 -126 58 -195.5t148 -69.5t147.5 67.5t57.5 193.5q0 117 -58.5 185t-147.5 68zM581 -1q-184 0 -262.5 -51t-78.5 -123q0 -68 59 -107q78 -52 222 -52q172 0 259 57t87 127q0 41 -27 76.5t-86 54t-173 18.5zM513 1496h82l239 -345h-64
l-217 199l-214 -199h-64z" />
    <glyph glyph-name="Gdot" unicode="&#x120;" horiz-adv-x="1593" 
d="M1151 1363l82 147h67l37 -590h-65q-75 255 -177 369q-130 145 -298 145q-129 0 -231 -73t-156.5 -219t-54.5 -411q0 -257 54.5 -402t150.5 -213.5t225 -68.5q175 0 270.5 98t95.5 253v139q0 33 -25.5 51t-83.5 18h-125v70h620v-70h-84q-56 0 -80 -19.5t-24 -56.5v-565
h-66q-36 132 -75 253q-75 -123 -178.5 -184.5t-234.5 -61.5q-187 0 -346.5 96t-252 270.5t-92.5 394.5q0 221 93 396t254.5 278t326.5 103q94 0 179.5 -31.5t193.5 -115.5zM820 1860q43 0 73 -29.5t30 -71.5q0 -43 -30.5 -73.5t-72.5 -30.5t-72 30.5t-30 73.5q0 42 30 71.5
t72 29.5z" />
    <glyph glyph-name="gdot" unicode="&#x121;" horiz-adv-x="1100" 
d="M785 884q100 101 184 101q50 0 83 -32t33 -78q0 -37 -22.5 -61.5t-52.5 -24.5q-57 0 -77 70q-8 30 -27 30q-34 0 -74 -45q43 -59 59 -102.5t16 -93.5q0 -87 -42 -153.5t-139.5 -117.5t-186.5 -51h-109q-116 0 -154 -24q-38 -25 -38 -73q0 -39 31 -60t117 -21l247 5
q187 0 269.5 -62.5t82.5 -171.5q0 -120 -94 -202q-131 -116 -391 -116q-215 0 -319 79q-82 62 -82 139q0 59 52.5 108t176.5 73q-99 24 -149 70.5t-50 115.5q0 64 40.5 111.5t140.5 81.5q-85 47 -128 113.5t-43 152.5q0 136 107 228t278 92q70 0 135 -20t126 -61zM522 901
q-89 0 -147 -65.5t-58 -183.5q0 -126 58 -195.5t148 -69.5t147.5 67.5t57.5 193.5q0 117 -58.5 185t-147.5 68zM581 -1q-184 0 -262.5 -51t-78.5 -123q0 -68 59 -107q78 -52 222 -52q172 0 259 57t87 127q0 41 -27 76.5t-86 54t-173 18.5zM567 1369q43 0 73 -29.5t30 -71.5
q0 -43 -30.5 -73.5t-72.5 -30.5t-72 30.5t-30 73.5q0 42 30 71.5t72 29.5z" />
    <glyph glyph-name="Gcedilla" unicode="&#x122;" horiz-adv-x="1593" 
d="M1151 1363l82 147h67l37 -590h-65q-75 255 -177 369q-130 145 -298 145q-129 0 -231 -73t-156.5 -219t-54.5 -411q0 -257 54.5 -402t150.5 -213.5t225 -68.5q175 0 270.5 98t95.5 253v139q0 33 -25.5 51t-83.5 18h-125v70h620v-70h-84q-56 0 -80 -19.5t-24 -56.5v-565
h-66q-36 132 -75 253q-75 -123 -178.5 -184.5t-234.5 -61.5q-187 0 -346.5 96t-252 270.5t-92.5 394.5q0 221 93 396t254.5 278t326.5 103q94 0 179.5 -31.5t193.5 -115.5zM774 -39q80 -13 121.5 -54t41.5 -95q0 -85 -70.5 -143t-202.5 -58q-38 0 -104 4v77h48q88 0 129 31
t41 77q0 66 -101 83l22 127h81z" />
    <glyph glyph-name="gcedilla" unicode="&#x123;" horiz-adv-x="1100" 
d="M785 884q100 101 184 101q50 0 83 -32t33 -78q0 -37 -22.5 -61.5t-52.5 -24.5q-57 0 -77 70q-8 30 -27 30q-34 0 -74 -45q43 -59 59 -102.5t16 -93.5q0 -87 -42 -153.5t-139.5 -117.5t-186.5 -51h-109q-116 0 -154 -24q-38 -25 -38 -73q0 -39 31 -60t117 -21l247 5
q187 0 269.5 -62.5t82.5 -171.5q0 -120 -94 -202q-131 -116 -391 -116q-215 0 -319 79q-82 62 -82 139q0 59 52.5 108t176.5 73q-99 24 -149 70.5t-50 115.5q0 64 40.5 111.5t140.5 81.5q-85 47 -128 113.5t-43 152.5q0 136 107 228t278 92q70 0 135 -20t126 -61zM522 901
q-89 0 -147 -65.5t-58 -183.5q0 -126 58 -195.5t148 -69.5t147.5 67.5t57.5 193.5q0 117 -58.5 185t-147.5 68zM581 -1q-184 0 -262.5 -51t-78.5 -123q0 -68 59 -107q78 -52 222 -52q172 0 259 57t87 127q0 41 -27 76.5t-86 54t-173 18.5zM572 1479l16 -36
q-102 -43 -102 -115q0 -18 18 -18q4 0 17 2q16 2 25 2q37 0 63.5 -23.5t26.5 -54.5q0 -30 -26.5 -53t-70.5 -23q-55 0 -89 34.5t-34 90.5q0 137 156 194z" />
    <glyph glyph-name="Hcircumflex" unicode="&#x124;" horiz-adv-x="1706" 
d="M96 1479h631v-75h-116q-61 0 -79.5 -21.5t-18.5 -104.5v-456h677v456q0 86 -17.5 106t-82.5 20h-108v75h628v-75h-115q-43 0 -60.5 -11t-28.5 -38q-6 -17 -6 -89v-1064q0 -77 13 -93q26 -34 95 -34h102v-75h-628v75h108q64 0 87 35q13 19 13 100v514h-677v-522
q0 -78 12 -94q25 -33 86 -33h116v-75h-631v75h121q32 0 51 13t28 37q5 16 5 85v1068q0 83 -18.5 104.5t-80.5 21.5h-106v75zM811 1988h82l239 -345h-64l-217 199l-214 -199h-64z" />
    <glyph glyph-name="hcircumflex" unicode="&#x125;" horiz-adv-x="1251" 
d="M43 1480l355 17v-722q74 96 159 143.5t180 47.5q90 0 162 -43q56 -34 95.5 -119t39.5 -201v-445q0 -43 22 -62.5t69 -19.5h80v-75h-506v75h56q64 0 88.5 20.5t24.5 61.5v445q0 117 -56.5 182.5t-144.5 65.5q-69 0 -128 -37t-100 -112.5t-41 -159.5v-374q0 -50 21 -71
t69 -21h80v-75h-495v75h56q57 0 81 22.5t24 69.5v1118q0 60 -31.5 89.5t-91.5 29.5h-68v75zM583 1919h82l239 -345h-64l-217 199l-214 -199h-64z" />
    <glyph glyph-name="Hbar" unicode="&#x126;" horiz-adv-x="1706" 
d="M301 1080h-193v88h193v129q0 68 -20.5 87.5t-86.5 19.5h-98v75h631v-75h-107q-68 0 -87.5 -19.5t-19.5 -87.5v-129h680v129q0 68 -20.5 87.5t-86.5 19.5h-107v75h631v-75h-98q-66 0 -86.5 -17.5t-20.5 -89.5v-129h193v-88h-193v-898q0 -68 20.5 -87.5t86.5 -19.5h98v-75
h-631v75h107q65 0 86 17.5t21 89.5v542h-680v-542q0 -68 20.5 -87.5t86.5 -19.5h107v-75h-631v75h98q67 0 87 19.5t20 87.5v898zM513 1080v-258h680v258h-680z" />
    <glyph glyph-name="hbar" unicode="&#x127;" horiz-adv-x="1251" 
d="M398 1216h341v-71h-341v-371q148 191 341 191q93 0 164 -46.5t101 -125.5t30 -247v-389q0 -82 91 -82h80v-75h-506v75h56q113 0 113 82v445q0 110 -54.5 179t-146.5 69q-111 0 -190 -90t-79 -219v-374q0 -92 90 -92h80v-75h-495v75h56q105 0 105 92v978h-191v71h191v69
q0 119 -123 119h-68v75l355 19v-282z" />
    <glyph glyph-name="Itilde" unicode="&#x128;" horiz-adv-x="834" 
d="M76 1479h682v-75h-117q-78 0 -98.5 -19.5t-20.5 -82.5v-1120q0 -67 18 -84q24 -23 87 -23h131v-75h-682v75h129q68 0 88 20t20 87v1120q0 64 -18 79q-28 23 -103 23h-116v75zM721 1885h34q-1 -106 -58 -167.5t-140 -61.5q-62 0 -205 52q-105 37 -141 37q-74 0 -99 -89
h-34q21 226 199 226q66 0 190 -44q126 -45 157 -45q71 0 97 92z" />
    <glyph glyph-name="itilde" unicode="&#x129;" horiz-adv-x="645" 
d="M49 937l372 11v-806q0 -33 16 -47q23 -20 58 -20h106v-75h-532v75h99q44 0 64.5 21.5t20.5 62.5v590q0 56 -32 84.5t-95 28.5h-77v75zM567 1394h34q-1 -106 -58 -167.5t-140 -61.5q-62 0 -205 52q-105 37 -141 37q-74 0 -99 -89h-34q21 226 199 226q66 0 190 -44
q126 -45 157 -45q71 0 97 92z" />
    <glyph glyph-name="Imacron" unicode="&#x12a;" horiz-adv-x="834" 
d="M76 1479h682v-75h-117q-78 0 -98.5 -19.5t-20.5 -82.5v-1120q0 -67 18 -84q24 -23 87 -23h131v-75h-682v75h129q68 0 88 20t20 87v1120q0 64 -18 79q-28 23 -103 23h-116v75zM94 1886h647v-130h-647v130z" />
    <glyph glyph-name="imacron" unicode="&#x12b;" horiz-adv-x="645" 
d="M49 937l372 11v-806q0 -33 16 -47q23 -20 58 -20h106v-75h-532v75h99q44 0 64.5 21.5t20.5 62.5v590q0 56 -32 84.5t-95 28.5h-77v75zM-23 1395h647v-130h-647v130z" />
    <glyph glyph-name="Ibreve" unicode="&#x12c;" horiz-adv-x="834" 
d="M76 1479h682v-75h-117q-78 0 -98.5 -19.5t-20.5 -82.5v-1120q0 -67 18 -84q24 -23 87 -23h131v-75h-682v75h129q68 0 88 20t20 87v1120q0 64 -18 79q-28 23 -103 23h-116v75zM113 1970h63q26 -65 81.5 -97t154.5 -32q102 0 167 36q49 28 75 93h66q-9 -105 -50.5 -172.5
t-109.5 -106.5t-147 -39q-118 0 -199.5 80.5t-100.5 237.5z" />
    <glyph glyph-name="ibreve" unicode="&#x12d;" horiz-adv-x="645" 
d="M49 937l372 11v-806q0 -33 16 -47q23 -20 58 -20h106v-75h-532v75h99q44 0 64.5 21.5t20.5 62.5v590q0 56 -32 84.5t-95 28.5h-77v75zM-16 1479h63q26 -65 81.5 -97t154.5 -32q102 0 167 36q49 28 75 93h66q-9 -105 -50.5 -172.5t-109.5 -106.5t-147 -39
q-118 0 -199.5 80.5t-100.5 237.5z" />
    <glyph glyph-name="Iogonek" unicode="&#x12e;" horiz-adv-x="834" 
d="M76 1479h682v-75h-117q-78 0 -98.5 -19.5t-20.5 -82.5v-1120q0 -67 18 -84q24 -23 87 -23h131v-75h-682v75h129q68 0 88 20t20 87v1120q0 64 -18 79q-28 23 -103 23h-116v75zM362 10h53q-27 -55 -27 -103q0 -90 61 -146.5t156 -56.5q55 0 121 23l21 -33
q-76 -46 -127 -62.5t-108 -16.5q-107 0 -169 55t-62 140q0 119 81 200z" />
    <glyph glyph-name="iogonek" unicode="&#x12f;" horiz-adv-x="645" 
d="M308 1496q45 0 79 -34t34 -80q0 -45 -33 -78t-79 -33t-79.5 33.5t-33.5 78.5t34 79t78 34zM49 937l372 11v-806q0 -33 16 -47q23 -20 58 -20h106v-75h-532v75h99q44 0 64.5 21.5t20.5 62.5v590q0 56 -32 84.5t-95 28.5h-77v75zM282 10h53q-27 -55 -27 -103
q0 -90 61 -146.5t156 -56.5q55 0 121 23l21 -33q-76 -46 -127 -62.5t-108 -16.5q-107 0 -169 55t-62 140q0 119 81 200z" />
    <glyph glyph-name="Jcircumflex" unicode="&#x134;" horiz-adv-x="1139" 
d="M423 1479h654v-75h-93q-55 0 -78.5 -20t-23.5 -58v-959q0 -111 -54 -200.5t-158 -142t-235 -52.5q-178 0 -291 104.5t-113 255.5q0 112 57 179t140 67q68 0 112 -43.5t44 -110.5q0 -58 -36 -97.5t-83 -39.5q-18 0 -50 10q-27 8 -36 8q-17 0 -27 -14q-11 -14 -11 -42
q0 -75 75.5 -136.5t185.5 -61.5q125 0 197 86.5t72 241.5v947q0 39 -26.5 58.5t-90.5 19.5h-131v75zM688 1988h82l239 -345h-64l-217 199l-214 -199h-64z" />
    <glyph glyph-name="jcircumflex" unicode="&#x135;" horiz-adv-x="606" 
d="M179 1498h83l239 -347h-64l-218 199l-214 -199h-63zM419 951v-896q0 -189 -105 -321.5t-239 -132.5q-139 0 -139 119q0 54 30.5 82.5t71.5 28.5q70 0 91 -91q10 -45 36 -45q45 0 68 88.5t23 181.5v789q0 113 -135 113h-85v70z" />
    <glyph glyph-name="Kcedilla" unicode="&#x136;" horiz-adv-x="1593" 
d="M83 1479h676v-75h-144q-46 0 -71 -24t-25 -61v-687l557 595q48 52 48 98q0 35 -33 57t-108 22h-41v75h607v-75h-47q-61 0 -134 -36t-135 -100l-343 -357l491 -724q41 -61 85 -86.5t104 -25.5h54v-75h-667v75h76q83 0 110.5 14t27.5 35q0 19 -12 38l-408 600l-232 -249
v-364q0 -34 20 -50q32 -24 76 -24h144v-75h-676v75h130q50 0 74 20.5t24 53.5v1181q0 35 -27 54.5t-91 19.5h-110v75zM633 -86q71 5 106 5q89 0 143 -33t54 -97q0 -74 -65.5 -131t-210.5 -57q-23 0 -71 1v77q189 0 189 98q0 53 -143 53z" />
    <glyph glyph-name="kcedilla" unicode="&#x137;" horiz-adv-x="1214" 
d="M51 1479l358 17v-1023l305 265q44 39 44 68q0 25 -26 39q-39 20 -127 22v70h499v-70q-148 -8 -226 -78l-215 -191l349 -480q32 -43 111 -43h52v-75h-512v75h51q57 0 76.5 10t19.5 24t-10 28l-254 356l-137 -119v-237q0 -29 19 -43q27 -19 75 -19h65v-75h-503v75h81
q50 0 74 21t24 56v1156q0 45 -29 66q-42 30 -113 30h-51v75zM444 -86q71 5 106 5q89 0 143 -33t54 -97q0 -74 -65.5 -131t-210.5 -57q-23 0 -71 1v77q189 0 189 98q0 53 -143 53z" />
    <glyph glyph-name="kgreenlandic" unicode="&#x138;" horiz-adv-x="1212" 
d="M49 937l358 19v-483l305 265q44 39 44 69q0 52 -153 55v75h499v-75q-150 -5 -226 -73l-215 -191l349 -480q32 -43 111 -43h52v-75h-512v75h51q96 0 96 35q0 13 -10 27l-254 356l-137 -119v-237q0 -62 94 -62h65v-75h-503v75h81q98 0 98 77v590q0 125 -123 125h-70v70z
" />
    <glyph glyph-name="Lcedilla" unicode="&#x13b;" horiz-adv-x="1366" 
d="M64 1479h685v-75h-164q-39 0 -57.5 -20.5t-18.5 -64.5v-1167q0 -42 23.5 -59.5t94.5 -17.5h208q166 0 271.5 110.5t153.5 383.5h70l-34 -569h-1232v75h121q62 0 87 23.5t25 75.5v1155q0 37 -21 56t-62 19h-150v75zM532 -86q71 5 106 5q89 0 143 -33t54 -97
q0 -74 -65.5 -131t-210.5 -57q-23 0 -71 1v77q189 0 189 98q0 53 -143 53z" />
    <glyph glyph-name="lcedilla" unicode="&#x13c;" horiz-adv-x="645" 
d="M420 1496v-1358q0 -28 17 -43q25 -20 61 -20h99v-75h-530v75h94q46 0 68.5 22t22.5 62v1140q0 50 -27 73q-37 32 -91 32h-84v75zM184 -86q71 5 106 5q89 0 143 -33t54 -97q0 -74 -65.5 -131t-210.5 -57q-23 0 -71 1v77q189 0 189 98q0 53 -143 53z" />
    <glyph glyph-name="Ncedilla" unicode="&#x145;" horiz-adv-x="1669" 
d="M84 1479h353l892 -1162v841q0 127 -58 188q-53 56 -158 58v75h517v-75q-79 0 -118 -22t-68 -80t-29 -127v-1175h-94l-923 1209v-892q0 -121 61 -180.5t189 -61.5v-75h-564v75q106 4 168 69.5t62 160.5v1003l-17 18q-50 54 -71 64q-29 14 -75 14h-67v75zM696 -86
q71 5 106 5q89 0 143 -33t54 -97q0 -74 -65.5 -131t-210.5 -57q-23 0 -71 1v77q189 0 189 98q0 53 -143 53z" />
    <glyph glyph-name="ncedilla" unicode="&#x146;" horiz-adv-x="1251" 
d="M67 937l311 19q19 -88 28 -206q63 102 148.5 153t193.5 51q93 0 156 -36.5t101 -115.5t38 -177v-456q0 -51 23 -72.5t77 -21.5h66v-75h-494v75h47q66 0 92 21t26 63v401q0 131 -40 194q-56 90 -170 90q-113 0 -188.5 -91t-75.5 -237v-347q0 -51 23.5 -72.5t77.5 -21.5h65
v-75h-496v75h65q49 0 74.5 20t25.5 50v605q0 60 -32.5 91t-93.5 31h-48v65zM475 -86q71 5 106 5q89 0 143 -33t54 -97q0 -74 -65.5 -131t-210.5 -57q-23 0 -71 1v77q189 0 189 98q0 53 -143 53z" />
    <glyph glyph-name="Eng" unicode="&#x14a;" horiz-adv-x="1626" 
d="M513 1145v-963q0 -68 20.5 -87.5t86.5 -19.5h30v-75h-554v75h98q67 0 87 19.5t20 87.5v1115q0 68 -20.5 87.5t-86.5 19.5h-98v75h417v-185q143 216 396 216q255 0 430.5 -211.5t175.5 -559.5q0 -321 -141 -544.5t-374 -223.5q-157 0 -242 100.5t-85 255.5
q0 126 56.5 193.5t140.5 67.5q68 0 112 -44t44 -111q0 -59 -37 -97.5t-81 -38.5q-17 0 -67 14q-13 4 -21 4q-37 0 -37 -60q0 -87 55 -145.5t142 -58.5q130 0 207 137.5t77 517.5q0 393 -101.5 557t-283.5 164q-249 0 -366 -282z" />
    <glyph glyph-name="eng" unicode="&#x14b;" horiz-adv-x="1196" 
d="M1043 625v-555q0 -225 -106.5 -347t-238.5 -122q-139 0 -139 119q0 54 31 82.5t71 28.5q70 0 92 -91q10 -45 35 -45q46 0 68.5 88t22.5 182v327h1v268q0 284 -210 284q-113 0 -188.5 -91t-75.5 -237v-347q0 -59 28 -76.5t73 -17.5h65v-75h-496v75h65q100 0 100 70v605
q0 122 -126 122h-48v65l311 19q20 -83 28 -206q125 204 342 204q150 0 222.5 -92t72.5 -237z" />
    <glyph glyph-name="Omacron" unicode="&#x14c;" horiz-adv-x="1593" 
d="M784 1510q187 0 350.5 -98.5t256 -275t92.5 -397.5t-93 -399t-255.5 -277.5t-344.5 -99.5q-178 0 -334 97.5t-250.5 279t-94.5 402.5q0 218 91.5 393.5t250.5 275t331 99.5zM800 1433q-195 0 -316 -162t-121 -528q0 -397 124 -549t307 -152q128 0 225 69t154.5 219
t57.5 394q0 266 -54 415.5t-154 221.5t-223 72zM474 1883h647v-130h-647v130z" />
    <glyph glyph-name="omacron" unicode="&#x14d;" horiz-adv-x="1024" 
d="M509 965q189 0 317.5 -136.5t128.5 -359.5q0 -154 -57.5 -262.5t-164 -171.5t-229.5 -63q-182 0 -308.5 138t-126.5 358q0 221 127 359t313 138zM509 894q-112 0 -184 -101.5t-72 -320.5q0 -223 71.5 -326t184.5 -103q117 0 189.5 103t72.5 337q0 217 -71.5 314
t-190.5 97zM189 1395h647v-130h-647v130z" />
    <glyph glyph-name="Obreve" unicode="&#x14e;" horiz-adv-x="1593" 
d="M784 1510q187 0 350.5 -98.5t256 -275t92.5 -397.5t-93 -399t-255.5 -277.5t-344.5 -99.5q-178 0 -334 97.5t-250.5 279t-94.5 402.5q0 218 91.5 393.5t250.5 275t331 99.5zM800 1433q-195 0 -316 -162t-121 -528q0 -397 124 -549t307 -152q128 0 225 69t154.5 219
t57.5 394q0 266 -54 415.5t-154 221.5t-223 72zM488 1967h63q26 -65 81.5 -97t154.5 -32q102 0 167 36q49 28 75 93h66q-9 -105 -50.5 -172.5t-109.5 -106.5t-147 -39q-118 0 -199.5 80.5t-100.5 237.5z" />
    <glyph glyph-name="obreve" unicode="&#x14f;" horiz-adv-x="1024" 
d="M509 965q189 0 317.5 -136.5t128.5 -359.5q0 -154 -57.5 -262.5t-164 -171.5t-229.5 -63q-182 0 -308.5 138t-126.5 358q0 221 127 359t313 138zM509 894q-112 0 -184 -101.5t-72 -320.5q0 -223 71.5 -326t184.5 -103q117 0 189.5 103t72.5 337q0 217 -71.5 314
t-190.5 97zM208 1479h63q26 -65 81.5 -97t154.5 -32q102 0 167 36q49 28 75 93h66q-9 -105 -50.5 -172.5t-109.5 -106.5t-147 -39q-118 0 -199.5 80.5t-100.5 237.5z" />
    <glyph glyph-name="Rcedilla" unicode="&#x156;" horiz-adv-x="1479" 
d="M52 1479h764q222 0 344.5 -101t122.5 -265q0 -98 -48.5 -174.5t-140 -122t-287.5 -65.5q143 -39 197 -76.5t86.5 -97t74.5 -242.5q30 -131 64 -179q26 -37 56 -37q31 0 57.5 45.5t32.5 160.5h68q-19 -340 -251 -340q-73 0 -126.5 37t-80.5 109q-21 54 -47 283
q-15 133 -47.5 189t-101.5 90t-165 34h-121v-581q0 -37 19 -52q24 -19 75 -19h142v-75h-687v75h145q48 0 70.5 19t22.5 52v1182q0 38 -23 57t-70 19h-145v75zM503 799h175q176 0 275.5 66.5t99.5 236.5q0 117 -37.5 185t-98.5 93t-240 25q-118 0 -146 -16.5t-28 -56.5v-533z
M576 -86q71 5 106 5q89 0 143 -33t54 -97q0 -74 -65.5 -131t-210.5 -57q-23 0 -71 1v77q189 0 189 98q0 53 -143 53z" />
    <glyph glyph-name="rcedilla" unicode="&#x157;" horiz-adv-x="909" 
d="M52 937l337 17v-379q54 187 130 283t188 96q76 0 121.5 -46.5t45.5 -124.5q0 -63 -30.5 -98t-76.5 -35q-45 0 -72.5 30t-27.5 81q0 33 16 62q15 26 15 31q0 15 -19 15q-41 0 -93 -48q-72 -67 -111 -184q-60 -182 -60 -291v-201q0 -34 24 -52t82 -18h119v-75h-582v75h93
q47 0 71 18.5t24 44.5v597q0 68 -29 99.5t-83 31.5h-82v71zM292 -86q71 5 106 5q89 0 143 -33t54 -97q0 -74 -65.5 -131t-210.5 -57q-23 0 -71 1v77q189 0 189 98q0 53 -143 53z" />
    <glyph glyph-name="Scircumflex" unicode="&#x15c;" horiz-adv-x="1290" 
d="M947 1367l90 129h73l6 -539h-66q-62 248 -183.5 362t-279.5 114q-132 0 -216 -79t-84 -193q0 -71 32 -124.5t95.5 -87t239.5 -71.5q247 -54 346.5 -109t148.5 -138.5t49 -195.5q0 -200 -134.5 -331.5t-347.5 -131.5q-229 0 -398 148l-113 -138h-72v573h72
q42 -237 188 -374t329 -137q148 0 241.5 87.5t93.5 212.5q0 71 -35 124.5t-111 90t-299 88.5q-245 58 -334 130q-125 102 -125 289q0 195 124.5 319.5t318.5 124.5q93 0 177 -33t174 -110zM624 1988h82l239 -345h-64l-217 199l-214 -199h-64z" />
    <glyph glyph-name="scircumflex" unicode="&#x15d;" horiz-adv-x="948" 
d="M179 353q62 -173 142.5 -239.5t198.5 -66.5q109 0 167.5 47.5t58.5 120.5q0 42 -21.5 73.5t-59.5 47t-197 45.5q-152 30 -212 63t-93.5 91t-33.5 126q0 103 69 187q89 107 249 107q122 0 226 -77l66 70h41l26 -334h-67q-44 142 -119 204.5t-185 62.5q-95 0 -149 -46.5
t-54 -113.5q0 -59 50 -98q49 -40 192 -63q166 -28 216 -47q82 -30 127 -92.5t45 -152.5q0 -124 -97.5 -210t-247.5 -86q-139 0 -258 92l-73 -84h-53l-20 373h66zM446 1496h82l239 -345h-64l-217 199l-214 -199h-64z" />
    <glyph glyph-name="Tbar" unicode="&#x166;" horiz-adv-x="1366" 
d="M793 781h398v-88h-398v-511q0 -68 21 -87.5t87 -19.5h131v-75h-687v75h132q66 0 87 17.5t21 89.5v511h-398v88h398v555q0 77 -97 77q-287 0 -357 -493h-73l32 559h1200l29 -559h-69q-69 493 -356 493q-69 0 -85 -24t-16 -62v-546z" />
    <glyph glyph-name="tbar" unicode="&#x167;" horiz-adv-x="797" 
d="M381 628h303v-71h-303v-313q0 -83 39 -122t92 -39q71 0 119 67t53 204h67q-3 -187 -85 -277.5t-205 -90.5q-107 0 -177 58.5t-70 171.5v341h-163v71h163v217h-163v70q246 33 262 404h68v-382h303v-92h-303v-217z" />
    <glyph glyph-name="Utilde" unicode="&#x168;" horiz-adv-x="1669" 
d="M54 1479h683v-75h-137q-55 0 -77 -18t-22 -55v-835q0 -131 23 -198q34 -99 124.5 -158t236.5 -59q202 0 308 104.5t106 279.5v679q0 90 -12.5 136.5t-36 72.5t-59.5 38.5t-120 12.5v75h559v-75h-40q-94 0 -140 -50.5t-46 -146.5v-727q0 -238 -136 -365
q-153 -143 -407 -143q-220 0 -346 62.5t-183 179.5q-43 89 -43 224v893q0 34 -23.5 53.5t-70.5 19.5h-141v75zM1147 1885h34q-1 -106 -58 -167.5t-140 -61.5q-62 0 -205 52q-105 37 -141 37q-74 0 -99 -89h-34q21 226 199 226q66 0 190 -44q126 -45 157 -45q71 0 97 92z" />
    <glyph glyph-name="utilde" unicode="&#x169;" horiz-adv-x="1251" 
d="M388 954v-621q0 -114 57.5 -176t148.5 -62q112 0 190.5 90.5t78.5 226.5v351q0 48 -34.5 74.5t-132.5 29.5v70l329 17v-769q0 -53 30 -81.5t84 -28.5h59v-67l-315 -8l-20 185q-84 -99 -169 -149t-172 -50q-127 0 -213 85q-87 84 -87 285v407q0 54 -43 82q-30 20 -123 22
v70zM931 1394h34q-1 -106 -58 -167.5t-140 -61.5q-62 0 -205 52q-105 37 -141 37q-74 0 -99 -89h-34q21 226 199 226q66 0 190 -44q126 -45 157 -45q71 0 97 92z" />
    <glyph glyph-name="Umacron" unicode="&#x16a;" horiz-adv-x="1669" 
d="M54 1479h683v-75h-137q-55 0 -77 -18t-22 -55v-835q0 -131 23 -198q34 -99 124.5 -158t236.5 -59q202 0 308 104.5t106 279.5v679q0 90 -12.5 136.5t-36 72.5t-59.5 38.5t-120 12.5v75h559v-75h-40q-94 0 -140 -50.5t-46 -146.5v-727q0 -238 -136 -365
q-153 -143 -407 -143q-220 0 -346 62.5t-183 179.5q-43 89 -43 224v893q0 34 -23.5 53.5t-70.5 19.5h-141v75zM519 1886h647v-130h-647v130z" />
    <glyph glyph-name="umacron" unicode="&#x16b;" horiz-adv-x="1251" 
d="M388 954v-621q0 -114 57.5 -176t148.5 -62q112 0 190.5 90.5t78.5 226.5v351q0 48 -34.5 74.5t-132.5 29.5v70l329 17v-769q0 -53 30 -81.5t84 -28.5h59v-67l-315 -8l-20 185q-84 -99 -169 -149t-172 -50q-127 0 -213 85q-87 84 -87 285v407q0 54 -43 82q-30 20 -123 22
v70zM304 1395h647v-130h-647v130z" />
    <glyph glyph-name="Ubreve" unicode="&#x16c;" horiz-adv-x="1669" 
d="M54 1479h683v-75h-137q-55 0 -77 -18t-22 -55v-835q0 -131 23 -198q34 -99 124.5 -158t236.5 -59q202 0 308 104.5t106 279.5v679q0 90 -12.5 136.5t-36 72.5t-59.5 38.5t-120 12.5v75h559v-75h-40q-94 0 -140 -50.5t-46 -146.5v-727q0 -238 -136 -365
q-153 -143 -407 -143q-220 0 -346 62.5t-183 179.5q-43 89 -43 224v893q0 34 -23.5 53.5t-70.5 19.5h-141v75zM538 1970h63q26 -65 81.5 -97t154.5 -32q102 0 167 36q49 28 75 93h66q-9 -105 -50.5 -172.5t-109.5 -106.5t-147 -39q-118 0 -199.5 80.5t-100.5 237.5z" />
    <glyph glyph-name="ubreve" unicode="&#x16d;" horiz-adv-x="1251" 
d="M388 954v-621q0 -114 57.5 -176t148.5 -62q112 0 190.5 90.5t78.5 226.5v351q0 48 -34.5 74.5t-132.5 29.5v70l329 17v-769q0 -53 30 -81.5t84 -28.5h59v-67l-315 -8l-20 185q-84 -99 -169 -149t-172 -50q-127 0 -213 85q-87 84 -87 285v407q0 54 -43 82q-30 20 -123 22
v70zM323 1479h63q26 -65 81.5 -97t154.5 -32q102 0 167 36q49 28 75 93h66q-9 -105 -50.5 -172.5t-109.5 -106.5t-147 -39q-118 0 -199.5 80.5t-100.5 237.5z" />
    <glyph glyph-name="Uogonek" unicode="&#x172;" horiz-adv-x="1669" 
d="M54 1479h683v-75h-137q-55 0 -77 -18t-22 -55v-835q0 -131 23 -198q34 -99 124.5 -158t236.5 -59q202 0 308 104.5t106 279.5v679q0 90 -12.5 136.5t-36 72.5t-59.5 38.5t-120 12.5v75h559v-75h-40q-94 0 -140 -50.5t-46 -146.5v-727q0 -238 -136 -365
q-153 -143 -407 -143q-220 0 -346 62.5t-183 179.5q-43 89 -43 224v893q0 34 -23.5 53.5t-70.5 19.5h-141v75zM806 10h53q-27 -55 -27 -103q0 -90 61 -146.5t156 -56.5q55 0 121 23l21 -33q-76 -46 -127 -62.5t-108 -16.5q-107 0 -169 55t-62 140q0 119 81 200z" />
    <glyph glyph-name="uogonek" unicode="&#x173;" horiz-adv-x="1251" 
d="M388 954v-621q0 -114 57.5 -176t148.5 -62q112 0 190.5 90.5t78.5 226.5v351q0 48 -34.5 74.5t-132.5 29.5v70l329 17v-769q0 -53 30 -81.5t84 -28.5h59v-67l-315 -8l-20 185q-84 -99 -169 -149t-172 -50q-127 0 -213 85q-87 84 -87 285v407q0 54 -43 82q-30 20 -123 22
v70zM934 10h53q-27 -55 -27 -103q0 -90 61 -146.5t156 -56.5q55 0 121 23l21 -33q-76 -46 -127 -62.5t-108 -16.5q-107 0 -169 55t-62 140q0 119 81 200z" />
    <glyph glyph-name="Wcircumflex" unicode="&#x174;" horiz-adv-x="2009" 
d="M35 1479h494v-75h-35q-78 0 -99.5 -12t-21.5 -38q0 -18 15 -57l6 -19l301 -939l264 867q-46 148 -70.5 173t-97.5 25h-90v75h617v-75h-64q-84 0 -109 -13.5t-25 -40.5q0 -21 6 -39l307 -972l252 841q15 49 15 94q0 67 -30.5 98.5t-91.5 31.5h-46v75h464v-75
q-61 -8 -97 -29.5t-62.5 -61.5t-53.5 -133l-364 -1215h-70l-342 1085l-324 -1085h-75l-416 1313q-25 77 -56.5 101.5t-100.5 24.5v75zM974 1988h82l239 -345h-64l-217 199l-214 -199h-64z" />
    <glyph glyph-name="wcircumflex" unicode="&#x175;" horiz-adv-x="1593" 
d="M53 937h411v-69h-54q-40 0 -57 -12.5t-17 -33.5q0 -22 10 -47l211 -530l183 504q-38 80 -67 99.5t-102 19.5v69h452v-69h-38q-52 0 -71.5 -13.5t-19.5 -37.5q0 -18 9 -42l213 -530l169 471q17 47 17 80t-26 51t-98 21v69h365v-69q-68 -11 -103 -42.5t-59 -96.5l-272 -757
h-58l-264 657l-236 -657h-58l-336 828q-16 39 -36 52.5t-68 15.5v69zM757 1497h82l239 -345h-64l-217 199l-214 -199h-64z" />
    <glyph glyph-name="Ycircumflex" unicode="&#x176;" horiz-adv-x="1442" 
d="M-12 1479h648v-75h-72q-90 0 -117 -14t-27 -39q0 -26 14 -47l376 -583l270 497q18 33 18 72q0 52 -34 83t-97 31h-69v75h564v-75q-97 0 -153 -34t-108 -128l-341 -625v-468q0 -37 21 -53q29 -21 86 -21h127v-75h-679v75h134q54 0 78 19.5t24 54.5v455l-459 715
q-30 46 -70 64.5t-134 20.5v75zM684 1988h82l239 -345h-64l-217 199l-214 -199h-64z" />
    <glyph glyph-name="ycircumflex" unicode="&#x177;" horiz-adv-x="1100" 
d="M46 937h449v-68h-42q-59 0 -80.5 -15.5t-21.5 -44.5q0 -13 6 -26l261 -564l194 468q21 50 21 98q0 37 -29 57.5t-116 26.5v68h390v-68q-113 -11 -152 -101l-346 -807q-89 -205 -178 -282q-90 -78 -193 -78q-75 0 -120.5 41t-45.5 101q0 45 28 74t70 29q38 0 64 -25
t26 -60q0 -11 -4 -30q-4 -15 -4 -22q0 -24 31 -24q33 0 74.5 24t77.5 77t126 234l-355 763q-19 40 -47.5 59.5t-83.5 26.5v68zM519 1496h82l239 -345h-64l-217 199l-214 -199h-64z" />
    <glyph glyph-name="longs" unicode="&#x17f;" horiz-adv-x="655" 
d="M625 75v-75h-574v75h79q95 0 95 74v858q0 245 102.5 376t257.5 131q106 0 172 -53t66 -144q0 -58 -30.5 -91.5t-77.5 -33.5q-41 0 -69 26.5t-28 69.5t45 84q20 19 20 28q0 19 -25 32t-64 13q-96 0 -149.5 -82.5t-53.5 -217.5v-979q0 -91 106 -91h128z" />
    <glyph glyph-name="Aringacute" unicode="&#x1fa;" horiz-adv-x="1479" 
d="M715 1510h67l531 -1353q32 -82 131 -82h46v-75h-590v75h47q92 0 130 20q26 14 26 43q0 17 -7 36l-123 314h-584l-69 -180q-27 -72 -27 -114q0 -49 45.5 -84t132.5 -35h50v-75h-536v75q86 0 136 37.5t92 142.5zM686 1225l-265 -659h523zM739 2025q84 0 145 -61t61 -146
q0 -87 -61 -148.5t-148 -61.5q-86 0 -147 60.5t-61 146.5q0 87 61.5 148.5t149.5 61.5zM738 1943q-53 0 -90.5 -37.5t-37.5 -90.5q0 -52 37 -88.5t90 -36.5q51 0 88.5 37.5t37.5 89.5q0 53 -36.5 89.5t-88.5 36.5zM604 2044l-25 25l171 245q70 102 98.5 124t57.5 22
q33 0 58 -24.5t25 -55.5q0 -50 -71 -103z" />
    <glyph glyph-name="aringacute" unicode="&#x1fb;" horiz-adv-x="1139" 
d="M1057 103l36 -56q-73 -75 -162 -75q-68 0 -114.5 37t-81.5 130q-95 -100 -167 -133.5t-173 -33.5q-144 0 -219 62t-75 159q0 146 171.5 242.5t456.5 128.5v142q0 76 -61 130t-155 54q-87 0 -150 -36q-45 -27 -45 -53q0 -15 24 -47q29 -40 29 -71q0 -45 -29 -73.5
t-76 -28.5q-50 0 -83.5 34t-33.5 87q0 99 111.5 181t292.5 82q167 0 255 -72q88 -73 88 -177v-512q0 -68 22 -100q22 -33 57 -33q39 0 82 32zM729 498q-254 -35 -360 -114q-79 -60 -79 -170q0 -77 41 -120.5t107 -43.5q118 0 204.5 89.5t86.5 224.5v134zM576 1526
q84 0 145 -61t61 -146q0 -87 -61 -148.5t-148 -61.5q-86 0 -147 60.5t-61 146.5q0 87 61.5 148.5t149.5 61.5zM575 1444q-53 0 -90.5 -37.5t-37.5 -90.5q0 -52 37 -88.5t90 -36.5q51 0 88.5 37.5t37.5 89.5q0 53 -36.5 89.5t-88.5 36.5zM444 1562l-25 25l171 245
q70 102 98.5 124t57.5 22q33 0 58 -24.5t25 -55.5q0 -50 -71 -103z" />
    <glyph glyph-name="AEacute" unicode="&#x1fc;" horiz-adv-x="2048" 
d="M589 1479h1285l30 -511h-70q-53 436 -385 436h-182q-42 0 -63 -20.5t-21 -54.5v-529h90q225 0 238 300h68v-688h-68q-4 172 -67 244.5t-177 72.5h-84v-584q0 -35 18 -50q24 -20 66 -20h192q109 0 191.5 49.5t138.5 150.5t85 291h69l-21 -566h-1182v75h144q43 0 66 21.5
t23 54.5v488h-419l-196 -362q-25 -47 -25 -96t32 -77.5t86 -28.5h26v-75h-434v75q61 2 109.5 42t118.5 169l544 993q24 44 24 78q0 23 -17 35t-65 12h-168v75zM973 1404l-384 -686h384v686zM1062 1580l-25 25l171 245q70 102 98.5 124t57.5 22q33 0 58 -24.5t25 -55.5
q0 -50 -71 -103z" />
    <glyph glyph-name="aeacute" unicode="&#x1fd;" horiz-adv-x="1630" 
d="M861 855q139 110 279 110q108 0 201.5 -59t145.5 -167.5t57 -281.5h-645q1 -132 39.5 -219t104 -131.5t139.5 -44.5q83 0 160.5 51.5t141.5 164.5l60 -34q-68 -135 -174 -203.5t-230 -68.5q-213 0 -357 215q-94 -120 -186 -167.5t-206 -47.5q-128 0 -203.5 64t-75.5 163
q0 127 131 223t487 148v97q0 110 -57 166.5t-166 56.5q-88 0 -142 -32q-42 -25 -42 -54q0 -15 20 -37q35 -38 35 -81q0 -46 -30 -74.5t-80 -28.5q-48 0 -79.5 32.5t-31.5 85.5q0 103 103.5 183.5t279.5 80.5q90 0 164.5 -25t156.5 -85zM899 539h373q45 0 64 21.5t19 79.5
q0 109 -65 182.5t-157 73.5q-103 0 -168.5 -86.5t-65.5 -270.5zM730 496q-243 -33 -353 -114q-80 -59 -80 -157q0 -73 44 -118.5t113 -45.5q118 0 197 85.5t79 232.5v117zM734 1094l-25 25l171 245q70 102 98.5 124t57.5 22q33 0 58 -24.5t25 -55.5q0 -50 -71 -103z" />
    <glyph glyph-name="Oslashacute" unicode="&#x1fe;" horiz-adv-x="1593" 
d="M279 222q-168 224 -168 519q0 220 91.5 395.5t250.5 274.5t335 99q125 0 249.5 -50t215.5 -139l141 158h99l-190 -213q180 -226 180 -526q0 -222 -93 -399.5t-255.5 -277.5t-344.5 -100q-127 0 -247.5 52t-215.5 150l-146 -165h-99zM406 366l744 838q-49 106 -144 167.5
t-207 61.5q-194 0 -315.5 -162.5t-121.5 -534.5q0 -219 44 -370zM1181 1128l-746 -842q47 -115 142.5 -179.5t216.5 -64.5q128 0 225 69t154.5 219t57.5 396q0 255 -50 402zM668 1586l-25 25l171 245q70 102 98.5 124t57.5 22q33 0 58 -24.5t25 -55.5q0 -50 -71 -103z" />
    <glyph glyph-name="oslashacute" unicode="&#x1ff;" horiz-adv-x="1024" 
d="M179 129q-110 134 -110 340q0 219 127 357.5t309 138.5q169 0 289 -105l65 77h91l-107 -127q112 -136 112 -341q0 -154 -57.5 -262t-164 -171.5t-229.5 -63.5q-155 0 -276 107l-66 -79h-91zM281 249l435 519q-66 126 -208 126q-112 0 -183.5 -102t-71.5 -324
q0 -125 28 -219zM745 695l-436 -519q65 -133 200 -133q117 0 189.5 103.5t72.5 338.5q0 123 -26 210zM381 1094l-25 25l171 245q70 102 98.5 124t57.5 22q33 0 58 -24.5t25 -55.5q0 -50 -71 -103z" />
    <glyph glyph-name="tonos" unicode="&#x384;" horiz-adv-x="682" 
d="M318 1090l-52 198q-22 82 -22 126q0 100 94 100q51 0 75.5 -28t24.5 -64q0 -38 -26 -134l-52 -198h-42z" />
    <glyph glyph-name="dieresistonos" unicode="&#x385;" horiz-adv-x="682" 
d="M319 1090l-53 198q-21 82 -21 126q0 100 93 100q52 0 76 -28t24 -64q0 -38 -25 -134l-52 -198h-42zM179 1268q0 -42 -30.5 -73t-72.5 -31t-72 31t-30 74q0 42 30.5 71t71.5 29t72 -29t31 -72zM709 1268q0 -42 -30.5 -73t-72.5 -31t-72 31t-30 74q0 42 30.5 71t71.5 29
q42 0 72.5 -29t30.5 -72z" />
    <glyph glyph-name="Alphatonos" unicode="&#x386;" horiz-adv-x="1479" 
d="M715 1510h67l531 -1353q32 -82 131 -82h46v-75h-590v75h47q92 0 130 20q26 14 26 43q0 17 -7 36l-123 314h-584l-69 -180q-27 -72 -27 -114q0 -49 45.5 -84t132.5 -35h50v-75h-536v75q86 0 136 37.5t92 142.5zM686 1225l-265 -659h523zM234 1090l-52 198q-22 82 -22 126
q0 100 94 100q51 0 75.5 -28t24.5 -64q0 -38 -26 -134l-52 -198h-42z" />
    <glyph glyph-name="anoteleia" unicode="&#x387;" horiz-adv-x="569" 
d="M408 844q0 -51 -34.5 -86t-85.5 -35q-53 0 -87.5 36.5t-34.5 84.5q0 45 33.5 83t87.5 38q49 0 85 -35t36 -86z" />
    <glyph glyph-name="Epsilontonos" unicode="&#x388;" horiz-adv-x="1614" 
d="M268 1479h1172l28 -499h-67q-40 236 -126.5 330t-225.5 94h-290q-35 0 -53 -19t-18 -58v-527h127q102 0 165.5 73t68.5 224h69v-685h-69q-5 170 -69.5 243.5t-175.5 73.5h-116v-588q0 -32 21.5 -49t71.5 -17h229q373 0 430 476h72l-25 -551h-1219v75h101q59 0 83 20.5
t24 59.5v1172q0 39 -21 58t-66 19h-121v75zM74 1090l-52 198q-22 82 -22 126q0 100 94 100q51 0 75.5 -28t24.5 -64q0 -38 -26 -134l-52 -198h-42z" />
    <glyph glyph-name="Etatonos" unicode="&#x389;" horiz-adv-x="1878" 
d="M268 1479h631v-75h-116q-61 0 -79.5 -21.5t-18.5 -104.5v-456h677v456q0 86 -17.5 106t-82.5 20h-108v75h628v-75h-115q-43 0 -60.5 -11t-28.5 -38q-6 -17 -6 -89v-1064q0 -77 13 -93q26 -34 95 -34h102v-75h-628v75h108q64 0 87 35q13 19 13 100v514h-677v-522
q0 -78 12 -94q25 -33 86 -33h116v-75h-631v75h121q32 0 51 13t28 37q5 16 5 85v1068q0 83 -18.5 104.5t-80.5 21.5h-106v75zM74 1090l-52 198q-22 82 -22 126q0 100 94 100q51 0 75.5 -28t24.5 -64q0 -38 -26 -134l-52 -198h-42z" />
    <glyph glyph-name="Iotatonos" unicode="&#x38a;" horiz-adv-x="1026" 
d="M268 1479h682v-75h-117q-78 0 -98.5 -19.5t-20.5 -82.5v-1120q0 -67 18 -84q24 -23 87 -23h131v-75h-682v75h129q68 0 88 20t20 87v1120q0 64 -18 79q-28 23 -103 23h-116v75zM74 1090l-52 198q-22 82 -22 126q0 100 94 100q51 0 75.5 -28t24.5 -64q0 -38 -26 -134
l-52 -198h-42z" />
    <glyph glyph-name="Omicrontonos" unicode="&#x38c;" horiz-adv-x="1640" 
d="M832 1510q187 0 350.5 -98.5t256 -275t92.5 -397.5t-93 -399t-255.5 -277.5t-344.5 -99.5q-178 0 -334 97.5t-250.5 279t-94.5 402.5q0 218 91.5 393.5t250.5 275t331 99.5zM848 1433q-195 0 -316 -162t-121 -528q0 -397 124 -549t307 -152q128 0 225 69t154.5 219
t57.5 394q0 266 -54 415.5t-154 221.5t-223 72zM74 1090l-52 198q-22 82 -22 126q0 100 94 100q51 0 75.5 -28t24.5 -64q0 -38 -26 -134l-52 -198h-42z" />
    <glyph glyph-name="Upsilontonos" unicode="&#x38e;" horiz-adv-x="1722" 
d="M268 1479h648v-75h-72q-90 0 -117 -14t-27 -39q0 -26 14 -47l376 -583l270 497q18 33 18 72q0 52 -34 83t-97 31h-69v75h564v-75q-97 0 -153 -34t-108 -128l-341 -625v-468q0 -37 21 -53q29 -21 86 -21h127v-75h-679v75h134q54 0 78 19.5t24 54.5v455l-459 715
q-30 46 -70 64.5t-134 20.5v75zM74 1090l-52 198q-22 82 -22 126q0 100 94 100q51 0 75.5 -28t24.5 -64q0 -38 -26 -134l-52 -198h-42z" />
    <glyph glyph-name="Omegatonos" unicode="&#x38f;" horiz-adv-x="1714" 
d="M147 443h72q31 -184 118 -245.5t312 -61.5h67l-13 201q-219 40 -360.5 194t-141.5 366q0 266 196.5 439.5t456.5 173.5q280 0 478.5 -165t198.5 -427q0 -202 -129.5 -362.5t-373.5 -216.5l-13 -203h69q155 0 229 18t124.5 80.5t75.5 208.5h72l-25 -443h-643l24 403
q339 44 339 508q0 288 -117.5 405t-293.5 117q-177 0 -297 -122t-120 -413q0 -240 83.5 -356t255.5 -139l24 -403h-643zM74 1090l-52 198q-22 82 -22 126q0 100 94 100q51 0 75.5 -28t24.5 -64q0 -38 -26 -134l-52 -198h-42z" />
    <glyph glyph-name="iotadieresistonos" unicode="&#x390;" horiz-adv-x="754" 
d="M48 862v75l372 11v-677q0 -188 110 -188q128 0 139 272h67q-2 -113 -31.5 -198t-78.5 -128t-144 -43q-94 0 -145 32.5t-68 86t-17 168.5v476q0 113 -127 113h-77zM335 1090l-53 198q-21 82 -21 126q0 100 93 100q52 0 76 -28t24 -64q0 -38 -25 -134l-52 -198h-42z
M195 1268q0 -42 -30.5 -73t-72.5 -31t-72 31t-30 74q0 42 30.5 71t71.5 29t72 -29t31 -72zM725 1268q0 -42 -30.5 -73t-72.5 -31t-72 31t-30 74q0 42 30.5 71t71.5 29q42 0 72.5 -29t30.5 -72z" />
    <glyph glyph-name="Alpha" unicode="&#x391;" horiz-adv-x="1479" 
d="M715 1510h67l531 -1353q32 -82 131 -82h46v-75h-590v75h47q92 0 130 20q26 14 26 43q0 17 -7 36l-123 314h-584l-69 -180q-27 -72 -27 -114q0 -49 45.5 -84t132.5 -35h50v-75h-536v75q86 0 136 37.5t92 142.5zM686 1225l-265 -659h523z" />
    <glyph glyph-name="Beta" unicode="&#x392;" horiz-adv-x="1479" 
d="M97 1479h771q227 0 347.5 -100t120.5 -251q0 -126 -84 -214t-253 -139q209 -44 313.5 -138.5t104.5 -238.5q0 -110 -59.5 -195t-198 -144t-314.5 -59h-748v75h122q55 0 80.5 18t25.5 41v1185q0 42 -25 63.5t-73 21.5h-130v75zM539 799h280q129 0 205.5 76t76.5 249
q0 107 -36.5 167t-106 87.5t-240.5 27.5q-121 0 -150 -17.5t-29 -61.5v-528zM539 725v-570q0 -40 23.5 -60t84.5 -20h179q178 0 263 78.5t85 244.5q0 152 -88 239.5t-243 87.5h-304z" />
    <glyph glyph-name="Gamma" unicode="&#x393;" horiz-adv-x="1270" 
d="M96 1479h1143l20 -509h-70q-47 284 -147 359t-253 75h-210q-66 0 -66 -66v-1172q0 -53 25 -72t82 -19h154v-75h-678v75h120q85 0 85 79v1176q0 74 -91 74h-114v75z" />
    <glyph glyph-name="Delta" unicode="&#x394;" horiz-adv-x="1262" 
d="M595 1510h66l600 -1510h-1276zM565 1225l-445 -1147h896z" />
    <glyph glyph-name="Epsilon" unicode="&#x395;" horiz-adv-x="1479" 
d="M134 1479h1172l28 -499h-67q-40 236 -126.5 330t-225.5 94h-290q-35 0 -53 -19t-18 -58v-527h127q102 0 165.5 73t68.5 224h69v-685h-69q-5 170 -69.5 243.5t-175.5 73.5h-116v-588q0 -32 21.5 -49t71.5 -17h229q373 0 430 476h72l-25 -551h-1219v75h101q59 0 83 20.5
t24 59.5v1172q0 39 -21 58t-66 19h-121v75z" />
    <glyph glyph-name="Zeta" unicode="&#x396;" horiz-adv-x="1251" 
d="M150 1479h1007v-75l-845 -1329h321q138 0 226 45t142.5 134.5t99.5 300.5h70l-27 -555h-1070v67l853 1337h-305q-125 0 -194 -29q-94 -39 -153 -139.5t-83 -268.5h-70z" />
    <glyph glyph-name="Eta" unicode="&#x397;" horiz-adv-x="1706" 
d="M96 1479h631v-75h-116q-61 0 -79.5 -21.5t-18.5 -104.5v-456h677v456q0 86 -17.5 106t-82.5 20h-108v75h628v-75h-115q-43 0 -60.5 -11t-28.5 -38q-6 -17 -6 -89v-1064q0 -77 13 -93q26 -34 95 -34h102v-75h-628v75h108q64 0 87 35q13 19 13 100v514h-677v-522
q0 -78 12 -94q25 -33 86 -33h116v-75h-631v75h121q32 0 51 13t28 37q5 16 5 85v1068q0 83 -18.5 104.5t-80.5 21.5h-106v75z" />
    <glyph glyph-name="Theta" unicode="&#x398;" horiz-adv-x="1593" 
d="M788 1510q170 0 337 -93.5t262.5 -275.5t95.5 -402q0 -336 -205.5 -552t-487.5 -216q-170 0 -327.5 92.5t-254.5 275.5t-97 404q0 218 91.5 393.5t251 274.5t334.5 99zM799 1433q-186 0 -311 -157t-125 -532q0 -388 121.5 -541.5t309.5 -153.5q203 0 320 165t117 510
q0 392 -122 550.5t-310 158.5zM496 466v577h69q0 -243 198 -243h68q198 0 198 243h69v-577h-69q0 143 -52 203t-157 60h-44q-211 0 -211 -263h-69z" />
    <glyph glyph-name="Iota" unicode="&#x399;" horiz-adv-x="834" 
d="M76 1479h682v-75h-117q-78 0 -98.5 -19.5t-20.5 -82.5v-1120q0 -67 18 -84q24 -23 87 -23h131v-75h-682v75h129q68 0 88 20t20 87v1120q0 64 -18 79q-28 23 -103 23h-116v75z" />
    <glyph glyph-name="Kappa" unicode="&#x39a;" horiz-adv-x="1593" 
d="M83 1479h676v-75h-144q-46 0 -71 -24t-25 -61v-687l557 595q48 52 48 98q0 35 -33 57t-108 22h-41v75h607v-75h-47q-61 0 -134 -36t-135 -100l-343 -357l491 -724q41 -61 85 -86.5t104 -25.5h54v-75h-667v75h76q83 0 110.5 14t27.5 35q0 19 -12 38l-408 600l-232 -249
v-364q0 -34 20 -50q32 -24 76 -24h144v-75h-676v75h130q50 0 74 20.5t24 53.5v1181q0 35 -27 54.5t-91 19.5h-110v75z" />
    <glyph glyph-name="Lambda" unicode="&#x39b;" horiz-adv-x="1479" 
d="M686 1225l-366 -917q-28 -70 -28 -108q0 -58 48.5 -91.5t130.5 -33.5h50v-75h-536v75q98 0 145 45.5t83 134.5l502 1255h67l531 -1353q32 -82 131 -82h46v-75h-590v75h47q158 0 158 62q0 13 -9 37z" />
    <glyph glyph-name="Mu" unicode="&#x39c;" horiz-adv-x="1933" 
d="M34 1479h493l441 -1168l407 1168h504v-75h-123q-65 0 -87.5 -19t-22.5 -66v-1171q0 -35 27 -54t93 -19h113v-75h-676v75h126q54 0 80 20.5t26 52.5v1256l-489 -1404h-68l-526 1398v-1075q0 -96 24 -143.5t68.5 -73t147.5 -31.5v-75h-558v75q137 9 186 59t49 177v1020
q0 38 -23 55.5t-86 17.5h-126v75z" />
    <glyph glyph-name="Nu" unicode="&#x39d;" horiz-adv-x="1669" 
d="M84 1479h353l892 -1162v841q0 127 -58 188q-53 56 -158 58v75h517v-75q-79 0 -118 -22t-68 -80t-29 -127v-1175h-94l-923 1209v-892q0 -121 61 -180.5t189 -61.5v-75h-564v75q106 4 168 69.5t62 160.5v1003l-17 18q-50 54 -71 64q-29 14 -75 14h-67v75z" />
    <glyph glyph-name="Xi" unicode="&#x39e;" horiz-adv-x="1532" 
d="M145 1004l28 475h1185l29 -475h-67q-30 139 -82 211.5t-121 100.5t-184 28h-350q-181 0 -260 -88.5t-111 -251.5h-67zM465 448v613h69q0 -145 51 -203t146 -58h69q84 0 140.5 51.5t56.5 209.5h70v-613h-70q0 169 -55.5 225t-152.5 56h-44q-97 0 -154 -56t-57 -225h-69z
M101 527h72q49 -391 430 -391h326q375 0 429 391h72l-24 -527h-1280z" />
    <glyph glyph-name="Omicron" unicode="&#x39f;" horiz-adv-x="1593" 
d="M784 1510q187 0 350.5 -98.5t256 -275t92.5 -397.5t-93 -399t-255.5 -277.5t-344.5 -99.5q-178 0 -334 97.5t-250.5 279t-94.5 402.5q0 218 91.5 393.5t250.5 275t331 99.5zM800 1433q-195 0 -316 -162t-121 -528q0 -397 124 -549t307 -152q128 0 225 69t154.5 219
t57.5 394q0 266 -54 415.5t-154 221.5t-223 72z" />
    <glyph glyph-name="Pi" unicode="&#x3a0;" horiz-adv-x="1706" 
d="M96 1479h1514v-75h-110q-56 0 -75.5 -23t-19.5 -115v-1064q0 -66 6.5 -84t34 -30.5t66.5 -12.5h98v-75h-625v75h108q64 0 82 27t18 108v1185h-680v-1193q0 -69 5.5 -83.5t28.5 -29t64 -14.5h116v-75h-631v75h121q39 0 54.5 15.5t22.5 28.5t7 91v1068q0 80 -16.5 103
t-82.5 23h-106v75z" />
    <glyph glyph-name="Rho" unicode="&#x3a1;" horiz-adv-x="1366" 
d="M80 1479h729q247 0 377 -112t130 -293t-120 -276q-165 -131 -407 -131h-264v-505q0 -44 21 -63q28 -24 75 -24h168v-75h-709v75h148q44 0 64.5 17.5t20.5 47.5v1179q0 45 -26 65t-98 20h-109v75zM525 740h201q191 0 275.5 79.5t84.5 262.5q0 128 -38 196.5t-111.5 101.5
t-241.5 33q-111 0 -140.5 -21t-29.5 -73v-579z" />
    <glyph glyph-name="Sigma" unicode="&#x3a3;" horiz-adv-x="1251" 
d="M674 824l-441 -688h419q182 0 287 82t162 337h70l-27 -555h-1070v67l443 677l-413 660v75h1007l28 -509h-70q-25 176 -83.5 270t-142 129t-204.5 35h-329z" />
    <glyph glyph-name="Tau" unicode="&#x3a4;" horiz-adv-x="1366" 
d="M90 1479h1200l29 -559h-69q-68 493 -356 493q-58 0 -79.5 -20t-21.5 -66v-1182q0 -36 21 -53t69 -17h149v-75h-687v75h170q34 0 52 17t18 45v1199q0 38 -23 57.5t-74 19.5q-145 0 -242 -137q-80 -113 -115 -356h-73z" />
    <glyph glyph-name="Upsilon" unicode="&#x3a5;" horiz-adv-x="1442" 
d="M-12 1479h648v-75h-72q-90 0 -117 -14t-27 -39q0 -26 14 -47l376 -583l270 497q18 33 18 72q0 52 -34 83t-97 31h-69v75h564v-75q-97 0 -153 -34t-108 -128l-341 -625v-468q0 -37 21 -53q29 -21 86 -21h127v-75h-679v75h134q54 0 78 19.5t24 54.5v455l-459 715
q-30 46 -70 64.5t-134 20.5v75z" />
    <glyph glyph-name="Phi" unicode="&#x3a6;" horiz-adv-x="1741" 
d="M528 1404v75h682v-75h-118q-63 0 -91 -14t-28 -75v-70h67q269 0 441.5 -138.5t172.5 -359.5q0 -213 -152.5 -356.5t-456.5 -143.5h-72v-76q0 -62 24 -79t82 -17h131v-75h-682v75h129q59 0 82.5 18.5t23.5 77.5v76h-66q-269 0 -439.5 140.5t-170.5 353.5
q0 225 166.5 364.5t476.5 139.5h33v83q0 43 -23 59.5t-97 16.5h-115zM763 1173h-60q-386 0 -386 -430q0 -211 102.5 -316.5t283.5 -105.5h60v852zM977 321h75q150 0 261 94t111 346q0 412 -386 412h-61v-852z" />
    <glyph glyph-name="Chi" unicode="&#x3a7;" horiz-adv-x="1442" 
d="M37 1479h607v-75h-71q-77 0 -102.5 -13t-25.5 -33q0 -15 29 -57l283 -416l217 330q42 64 42 103t-36 62t-135 24v75h537v-75q-88 0 -139 -30q-69 -40 -127 -126l-304 -444l467 -674q20 -29 49.5 -41.5t102.5 -13.5v-75h-586v75h81q59 0 81.5 14.5t22.5 36.5q0 23 -30 67
l-302 440l-224 -322q-53 -76 -53 -134q0 -49 31 -75.5t91 -26.5h58v-75h-564v75q88 3 157.5 46.5t136.5 141.5l313 452l-404 580q-48 69 -85 88.5t-118 20.5v75z" />
    <glyph glyph-name="Psi" unicode="&#x3a8;" horiz-adv-x="2107" 
d="M54 1404v75h611v-75h-93q-65 0 -86 -17.5t-21 -89.5v-283q0 -141 24.5 -229.5t107 -141t223.5 -52.5h130v706q0 68 -21 87.5t-87 19.5h-93v75h610v-75h-93q-66 0 -87 -17.5t-21 -89.5v-706h133q172 0 262 72t90 351v283q0 68 -20.5 87.5t-86.5 19.5h-93v75h611v-75h-92
q-65 0 -86 -17.5t-21 -89.5v-328q0 -289 -144.5 -382.5t-419.5 -93.5h-133v-311q0 -68 21 -87.5t87 -19.5h129v-75h-682v75h129q66 0 87 17.5t21 89.5v311h-125q-323 0 -447.5 112.5t-124.5 363.5v328q0 68 -20.5 87.5t-87.5 19.5h-91z" />
    <glyph glyph-name="Omega" unicode="&#x3a9;" horiz-adv-x="1593" 
d="M78 443h72q31 -184 118 -245.5t312 -61.5h67l-13 201q-219 40 -360.5 194t-141.5 366q0 266 196.5 439.5t456.5 173.5q280 0 478.5 -165t198.5 -427q0 -202 -129.5 -362.5t-373.5 -216.5l-13 -203h69q155 0 229 18t124.5 80.5t75.5 208.5h72l-25 -443h-643l24 403
q339 44 339 508q0 288 -117.5 405t-293.5 117q-177 0 -297 -122t-120 -413q0 -240 83.5 -356t255.5 -139l24 -403h-643z" />
    <glyph glyph-name="Iotadieresis" unicode="&#x3aa;" horiz-adv-x="834" 
d="M76 1479h682v-75h-117q-78 0 -98.5 -19.5t-20.5 -82.5v-1120q0 -67 18 -84q24 -23 87 -23h131v-75h-682v75h129q68 0 88 20t20 87v1120q0 64 -18 79q-28 23 -103 23h-116v75zM224 1863q43 0 73 -29.5t30 -71.5q0 -43 -30.5 -73.5t-72.5 -30.5t-72 31t-30 74q0 42 30 71
t72 29zM609 1860q43 0 73 -29.5t30 -72.5t-30.5 -73.5t-72.5 -30.5q-43 0 -73.5 30.5t-30.5 72.5q0 43 30.5 73t73.5 30z" />
    <glyph glyph-name="Upsilondieresis" unicode="&#x3ab;" horiz-adv-x="1442" 
d="M-12 1479h648v-75h-72q-90 0 -117 -14t-27 -39q0 -26 14 -47l376 -583l270 497q18 33 18 72q0 52 -34 83t-97 31h-69v75h564v-75q-97 0 -153 -34t-108 -128l-341 -625v-468q0 -37 21 -53q29 -21 86 -21h127v-75h-679v75h134q54 0 78 19.5t24 54.5v455l-459 715
q-30 46 -70 64.5t-134 20.5v75zM548 1863q43 0 73 -29.5t30 -71.5q0 -43 -30.5 -73.5t-72.5 -30.5t-72 31t-30 74q0 42 30 71t72 29zM933 1860q43 0 73 -29.5t30 -72.5t-30.5 -73.5t-72.5 -30.5q-43 0 -73.5 30.5t-30.5 72.5q0 43 30.5 73t73.5 30z" />
    <glyph glyph-name="alphatonos" unicode="&#x3ac;" horiz-adv-x="1137" 
d="M905 954l47 -17q-28 -118 -28 -254v-469q0 -139 114 -139h65v-75h-320l-24 191q-113 -205 -305 -205q-160 0 -272.5 134t-112.5 354q0 216 122.5 348t280.5 132q196 0 303 -192zM496 871q-231 0 -231 -370q0 -241 67 -332.5t165 -91.5q115 0 189.5 110.5t74.5 299.5
q0 167 -71.5 275.5t-193.5 108.5zM525 1090l-52 198q-22 82 -22 126q0 100 94 100q51 0 75.5 -28t24.5 -64q0 -38 -26 -134l-52 -198h-42z" />
    <glyph glyph-name="epsilontonos" unicode="&#x3ad;" horiz-adv-x="958" 
d="M356 481q-241 39 -241 216q0 125 105.5 196.5t271.5 71.5q176 0 271 -78t95 -175q0 -55 -32.5 -93.5t-81.5 -38.5q-45 0 -76.5 31t-31.5 75q0 42 26 75q25 33 25 45q0 37 -55.5 62.5t-122.5 25.5q-102 0 -160.5 -54t-58.5 -141q0 -70 45.5 -123.5t199.5 -53.5v-75
q-258 0 -258 -210q0 -96 72 -142.5t180 -46.5q185 0 294 179l55 -31q-109 -225 -390 -225q-177 0 -285.5 67.5t-108.5 191.5q0 187 262 251zM474 1090l-52 198q-22 82 -22 126q0 100 94 100q51 0 75.5 -28t24.5 -64q0 -38 -26 -134l-52 -198h-42z" />
    <glyph glyph-name="etatonos" unicode="&#x3ae;" horiz-adv-x="1233" 
d="M67 937l313 11q18 -79 26 -198q125 204 342 204q150 0 222.5 -92t72.5 -237v-841q0 -58 27 -76t73 -18h66v-75h-494v75h47q118 0 118 84v786q0 284 -210 284q-113 0 -188.5 -91t-75.5 -237v-347q0 -59 28 -76.5t73 -17.5h65v-75h-496v75h65q100 0 100 70v605
q0 112 -126 112h-48v75zM639 1090l-52 198q-22 82 -22 126q0 100 94 100q51 0 75.5 -28t24.5 -64q0 -38 -26 -134l-52 -198h-42z" />
    <glyph glyph-name="iotatonos" unicode="&#x3af;" horiz-adv-x="754" 
d="M48 862v75l372 11v-677q0 -188 110 -188q128 0 139 272h67q-2 -113 -31.5 -198t-78.5 -128t-144 -43q-94 0 -145 32.5t-68 86t-17 168.5v476q0 113 -127 113h-77zM322 1090l-52 198q-22 82 -22 126q0 100 94 100q51 0 75.5 -28t24.5 -64q0 -38 -26 -134l-52 -198h-42z
" />
    <glyph glyph-name="upsilondieresistonos" unicode="&#x3b0;" horiz-adv-x="1188" 
d="M56 862v75l332 11v-579q0 -215 73 -270.5t165 -55.5q125 0 181 71t56 267v382q0 52 -36.5 74.5t-129.5 24.5v75l332 11v-592q0 -214 -103 -299.5t-290 -85.5q-220 0 -317 92t-97 293v407q0 52 -36.5 74.5t-129.5 24.5zM591 1090l-53 198q-21 82 -21 126q0 100 93 100
q52 0 76 -28t24 -64q0 -38 -25 -134l-52 -198h-42zM451 1268q0 -42 -30.5 -73t-72.5 -31t-72 31t-30 74q0 42 30.5 71t71.5 29t72 -29t31 -72zM981 1268q0 -42 -30.5 -73t-72.5 -31t-72 31t-30 74q0 42 30.5 71t71.5 29q42 0 72.5 -29t30.5 -72z" />
    <glyph glyph-name="alpha" unicode="&#x3b1;" horiz-adv-x="1137" 
d="M905 954l47 -17q-28 -118 -28 -254v-469q0 -139 114 -139h65v-75h-320l-24 191q-113 -205 -305 -205q-160 0 -272.5 134t-112.5 354q0 216 122.5 348t280.5 132q196 0 303 -192zM496 871q-231 0 -231 -370q0 -241 67 -332.5t165 -91.5q115 0 189.5 110.5t74.5 299.5
q0 167 -71.5 275.5t-193.5 108.5z" />
    <glyph glyph-name="beta" unicode="&#x3b2;" horiz-adv-x="1053" 
d="M141 -14l-40 14q28 115 28 236v866q0 184 99.5 298t290.5 114q189 0 290 -99.5t101 -226.5q0 -98 -58.5 -178.5t-151.5 -118.5q125 -36 203 -147.5t78 -270.5q0 -228 -126 -361.5t-294 -133.5q-210 0 -301 185q-33 -95 -119 -177zM300 798q52 68 101.5 91.5t159.5 34.5
q105 11 142 75t37 164q0 276 -215 276q-225 0 -225 -301v-340zM550 50q241 0 241 439q0 358 -241 358q-126 0 -191.5 -101.5t-65.5 -271.5q0 -176 64.5 -300t192.5 -124z" />
    <glyph glyph-name="gamma" unicode="&#x3b3;" horiz-adv-x="1100" 
d="M662 151v-367q0 -58 27 -76t73 -18h66v-75h-494v75h47q118 0 118 84v325l-301 640q-32 68 -65.5 95.5t-115.5 27.5v75h298q8 -70 46 -154l258 -564l191 468q24 59 24 93q0 40 -29.5 60t-115.5 22v75h390v-75q-65 0 -100 -28.5t-75 -123.5z" />
    <glyph glyph-name="delta" unicode="&#x3b4;" horiz-adv-x="1024" 
d="M423 932q-283 92 -283 288q0 128 115 211.5t303 83.5q152 0 254 -54.5t102 -154.5q0 -119 -100 -119q-46 0 -73.5 26.5t-27.5 67.5q0 31 22 62q12 16 12 29q0 35 -54.5 56t-126.5 21q-131 0 -198.5 -67t-67.5 -163q0 -92 57.5 -138.5t241.5 -113.5q133 -48 205.5 -105
t111.5 -159t39 -237q0 -233 -135 -364t-312 -131q-185 0 -312 138.5t-127 358.5q0 354 354 464zM771 483q0 211 -70.5 311t-191.5 100q-124 0 -190 -111t-66 -311q0 -214 69 -321.5t187 -107.5q262 0 262 440z" />
    <glyph glyph-name="epsilon" unicode="&#x3b5;" horiz-adv-x="958" 
d="M356 481q-241 39 -241 216q0 125 105.5 196.5t271.5 71.5q176 0 271 -78t95 -175q0 -55 -32.5 -93.5t-81.5 -38.5q-45 0 -76.5 31t-31.5 75q0 42 26 75q25 33 25 45q0 37 -55.5 62.5t-122.5 25.5q-102 0 -160.5 -54t-58.5 -141q0 -70 45.5 -123.5t199.5 -53.5v-75
q-258 0 -258 -210q0 -96 72 -142.5t180 -46.5q185 0 294 179l55 -31q-109 -225 -390 -225q-177 0 -285.5 67.5t-108.5 191.5q0 187 262 251z" />
    <glyph glyph-name="zeta" unicode="&#x3b6;" horiz-adv-x="901" 
d="M143 1346l18 162q134 -19 212 -19h485v-46q-28 -35 -163 -191q-244 -283 -344.5 -470t-100.5 -329q0 -91 56.5 -138.5t203.5 -100.5q184 -65 248.5 -93.5t100.5 -81t36 -130.5q0 -125 -91 -216.5t-277 -91.5q-200 0 -291.5 65t-91.5 164q0 56 30 94.5t86 38.5
q96 0 96 -80q0 -35 -29 -66q-19 -19 -19 -36q0 -38 56 -77.5t152 -39.5q115 0 169 63.5t54 148.5q0 67 -44.5 98t-208.5 85q-272 91 -344.5 180.5t-72.5 189.5q0 128 64.5 249.5t222.5 302.5t366 378h-334q-136 0 -245 -13z" />
    <glyph glyph-name="eta" unicode="&#x3b7;" horiz-adv-x="1233" 
d="M67 937l313 11q18 -79 26 -198q125 204 342 204q150 0 222.5 -92t72.5 -237v-841q0 -58 27 -76t73 -18h66v-75h-494v75h47q118 0 118 84v786q0 284 -210 284q-113 0 -188.5 -91t-75.5 -237v-347q0 -59 28 -76.5t73 -17.5h65v-75h-496v75h65q100 0 100 70v605
q0 112 -126 112h-48v75z" />
    <glyph glyph-name="theta" unicode="&#x3b8;" horiz-adv-x="1139" 
d="M562 1514q146 0 260.5 -96.5t170 -266.5t55.5 -407q0 -364 -135.5 -568.5t-342.5 -204.5q-126 0 -236 83t-176.5 259.5t-66.5 427.5q0 257 69.5 436.5t171.5 258t230 78.5zM289 822h563q-6 332 -78 473t-205 141q-124 0 -198.5 -120t-81.5 -494zM853 724h-565
q3 -400 77 -537.5t200 -137.5q147 0 217.5 155t70.5 520z" />
    <glyph glyph-name="iota" unicode="&#x3b9;" horiz-adv-x="754" 
d="M48 862v75l372 11v-677q0 -188 110 -188q128 0 139 272h67q-2 -113 -31.5 -198t-78.5 -128t-144 -43q-94 0 -145 32.5t-68 86t-17 168.5v476q0 113 -127 113h-77z" />
    <glyph glyph-name="kappa" unicode="&#x3ba;" horiz-adv-x="1214" 
d="M51 937l358 11v-475l305 265q44 39 44 68q0 53 -153 56v75h499v-75q-150 -5 -226 -73l-215 -191l349 -480q32 -43 111 -43h52v-75h-512v75h51q96 0 96 35q0 13 -10 27l-254 356l-137 -119v-237q0 -62 94 -62h65v-75h-503v75h81q98 0 98 77v591q0 119 -123 119h-70v75z
" />
    <glyph glyph-name="lambda" unicode="&#x3bb;" horiz-adv-x="1122" 
d="M466 868l-130 344q-48 130 -76.5 161t-95.5 31h-67v75l309 19l539 -1350q29 -72 138 -73v-75h-470v75q83 1 113 12.5t30 44.5q0 12 -10 39l-233 595l-220 -517q-29 -68 -29 -96q0 -63 143 -78v-75h-400v75q66 4 104.5 32.5t78.5 122.5z" />
    <glyph glyph-name="mu" unicode="&#x3bc;" horiz-adv-x="1251" 
d="M56 862v75l332 17v-621q0 -122 61.5 -180t143.5 -58q116 0 193 93.5t77 223.5v351q0 98 -167 99v75l329 17v-738q0 -75 24.5 -108t89.5 -33h59v-75h-315l-20 185q-81 -106 -175 -152.5t-162 -46.5q-74 0 -141 49v-251q0 -58 27 -76t73 -18h67v-75h-494v75h46
q118 0 118 84v964q0 74 -34 98t-132 26z" />
    <glyph glyph-name="nu" unicode="&#x3bd;" horiz-adv-x="1100" 
d="M26 937h280q7 -77 48 -170l248 -553l227 536q6 14 6 22q0 75 -145 90v75h388v-75q-110 -8 -148 -95l-344 -795h-54l-368 817q-18 40 -48 56.5t-90 16.5v75z" />
    <glyph glyph-name="xi" unicode="&#x3be;" horiz-adv-x="897" 
d="M691 881v-80q-70 10 -109 10q-146 0 -245 -97.5t-99 -225.5q0 -74 38 -128t112.5 -90.5t259.5 -105.5q140 -52 191.5 -106t51.5 -146q0 -133 -98.5 -222t-287.5 -89q-190 0 -286.5 62.5t-96.5 165.5q0 58 30 96t86 38q96 0 96 -83q0 -37 -36 -77q-14 -14 -14 -26
q0 -41 61 -76t158 -35q129 0 180 64.5t51 138.5q0 55 -33.5 87t-135.5 66q-296 97 -396 184t-100 228q0 145 101.5 263t321.5 168q-259 80 -259 237q0 73 60.5 137.5t266.5 119.5h-264q-97 0 -186 -13l26 162q126 -19 212 -19h451v-129q-401 -39 -401 -254
q0 -90 75.5 -151.5t217.5 -73.5z" />
    <glyph glyph-name="omicron" unicode="&#x3bf;" horiz-adv-x="1024" 
d="M509 965q189 0 317.5 -136.5t128.5 -359.5q0 -154 -57.5 -262.5t-164 -171.5t-229.5 -63q-182 0 -308.5 138t-126.5 358q0 221 127 359t313 138zM509 894q-112 0 -184 -101.5t-72 -320.5q0 -223 71.5 -326t184.5 -103q117 0 189.5 103t72.5 337q0 217 -71.5 314
t-190.5 97z" />
    <glyph glyph-name="pi" unicode="&#x3c0;" horiz-adv-x="1286" 
d="M879 839h-472v-649q0 -65 18.5 -90t80.5 -25h66v-75h-496v75h65q42 0 71 18t29 97v577q0 95 -100 95h-65v75h1134v-75h-65q-31 0 -65.5 -14t-34.5 -81v-581q0 -62 19 -86.5t81 -24.5h65v-75h-496v75h64q61 0 81 25.5t20 89.5v649z" />
    <glyph glyph-name="rho" unicode="&#x3c1;" horiz-adv-x="1083" 
d="M-37 -385v75h69q96 0 96 68v627q0 201 42.5 312.5t151.5 189.5t246 78q181 0 313.5 -133t132.5 -366q0 -225 -125.5 -360t-303.5 -135q-192 0 -288 147v-343q0 -85 96 -85h69v-75h-499zM567 894q-123 0 -189 -112t-66 -305q0 -206 65.5 -320t190.5 -114q262 0 262 440
q0 411 -263 411z" />
    <glyph glyph-name="sigma1" unicode="&#x3c2;" horiz-adv-x="897" 
d="M891 -110q0 -127 -92 -209t-279 -82q-177 0 -277 62.5t-100 165.5q0 60 33 97.5t85 37.5q93 0 93 -82q0 -40 -37 -83q-14 -15 -14 -28q0 -39 60 -72t149 -33q113 0 171.5 60.5t58.5 140.5q0 43 -30 72.5t-138 72.5q-195 76 -295 133t-155 143t-55 199q0 203 129.5 341
t327.5 138q147 0 232 -80t85 -165q0 -53 -32 -91.5t-81 -38.5q-44 0 -75.5 31t-31.5 75t34 84q16 20 16 31q0 29 -40 56t-103 27q-132 0 -210.5 -119.5t-78.5 -262.5q0 -120 79.5 -194t321.5 -167q169 -66 209 -124.5t40 -135.5z" />
    <glyph glyph-name="sigma" unicode="&#x3c3;" horiz-adv-x="1049" 
d="M657 937h391v-92h-257q164 -144 164 -379q0 -237 -136.5 -366t-310.5 -129q-182 0 -310.5 136t-128.5 361q0 216 126 356.5t307 140.5q74 0 155 -28zM508 894q-111 0 -183 -101t-72 -316q0 -227 71.5 -330.5t184.5 -103.5q262 0 262 440q0 411 -263 411z" />
    <glyph glyph-name="tau" unicode="&#x3c4;" horiz-adv-x="954" 
d="M37 634l23 303h818v-92h-339v-601q0 -83 39 -122t92 -39q71 0 118.5 67t53.5 204h67q-3 -187 -85 -277.5t-206 -90.5q-106 0 -176.5 58.5t-70.5 171.5v629q-148 -2 -194.5 -40t-64.5 -171h-75z" />
    <glyph glyph-name="upsilon" unicode="&#x3c5;" horiz-adv-x="1188" 
d="M56 862v75l332 11v-579q0 -215 73 -270.5t165 -55.5q125 0 181 71t56 267v382q0 52 -36.5 74.5t-129.5 24.5v75l332 11v-592q0 -214 -103 -299.5t-290 -85.5q-220 0 -317 92t-97 293v407q0 52 -36.5 74.5t-129.5 24.5z" />
    <glyph glyph-name="phi" unicode="&#x3c6;" horiz-adv-x="1276" 
d="M543 44v444q0 291 91 384t221 93q162 0 257 -120.5t95 -342.5q0 -187 -64.5 -307t-166 -170.5t-264.5 -53.5v-356h-169v356q-246 9 -360 148t-114 349q0 204 116.5 350t316.5 147v-71q-249 -3 -249 -417q0 -246 68.5 -338t221.5 -95zM712 44q181 0 245.5 118t64.5 315
q0 220 -49.5 318.5t-124.5 98.5q-63 0 -99.5 -61.5t-36.5 -310.5v-478z" />
    <glyph glyph-name="chi" unicode="&#x3c7;" horiz-adv-x="1180" 
d="M629 454l143 221q63 97 63 124q0 57 -149 63v75h403v-75q-55 0 -89 -22.5t-111 -143.5l-210 -329l315 -561q36 -64 63 -90t111 -26v-75h-474v75q90 0 116 14.5t26 47.5q0 22 -21 61l-236 426l-252 -392q-46 -71 -46 -93q0 -59 138 -64v-75h-413v75q77 3 121.5 48.5
t90.5 113.5l309 466l-219 371q-64 110 -112 141.5t-130 31.5h-43v75l322 11z" />
    <glyph glyph-name="psi" unicode="&#x3c8;" horiz-adv-x="1649" 
d="M906 948v-904h49q179 0 242 58.5t63 230.5v604h332v-75h-21q-145 0 -145 -99v-407q0 -202 -92.5 -293.5t-378.5 -91.5h-49v-192q0 -89 100 -89h66v-75h-496v75h49q118 0 118 89v192h-50q-152 0 -256 33t-145.5 86t-55.5 95t-14 171v407q0 99 -145 99h-21v75l332 11v-615
q0 -203 94.5 -246t210.5 -43h50v719q0 98 -167 99v75z" />
    <glyph glyph-name="omega" unicode="&#x3c9;" horiz-adv-x="1296" 
d="M526 965v-73q-158 0 -215 -123t-57 -309q0 -191 43.5 -304.5t131.5 -113.5q74 0 104 76t30 296v95h169v-95q0 -249 36.5 -310.5t99.5 -61.5q87 0 130.5 113.5t43.5 303.5q0 168 -38.5 267t-91 131t-143.5 35v73q216 0 337 -140t121 -391q0 -231 -98.5 -347t-242.5 -116
q-157 0 -238 137q-89 -137 -239 -137q-147 0 -243.5 118.5t-96.5 338.5q0 199 64.5 315.5t160 168t232.5 53.5z" />
    <glyph glyph-name="iotadieresis" unicode="&#x3ca;" horiz-adv-x="754" 
d="M48 862v75l372 11v-677q0 -188 110 -188q128 0 139 272h67q-2 -113 -31.5 -198t-78.5 -128t-144 -43q-94 0 -145 32.5t-68 86t-17 168.5v476q0 113 -127 113h-77zM164 1369q43 0 73 -29.5t30 -71.5q0 -43 -30.5 -73.5t-72.5 -30.5t-72 31t-30 74q0 42 30 71t72 29z
M549 1366q43 0 73 -29.5t30 -72.5t-30.5 -73.5t-72.5 -30.5q-43 0 -73.5 30.5t-30.5 72.5q0 43 30.5 73t73.5 30z" />
    <glyph glyph-name="upsilondieresis" unicode="&#x3cb;" horiz-adv-x="1188" 
d="M56 862v75l332 11v-579q0 -215 73 -270.5t165 -55.5q125 0 181 71t56 267v382q0 52 -36.5 74.5t-129.5 24.5v75l332 11v-592q0 -214 -103 -299.5t-290 -85.5q-220 0 -317 92t-97 293v407q0 52 -36.5 74.5t-129.5 24.5zM433 1369q43 0 73 -29.5t30 -71.5
q0 -43 -30.5 -73.5t-72.5 -30.5t-72 31t-30 74q0 42 30 71t72 29zM818 1366q43 0 73 -29.5t30 -72.5t-30.5 -73.5t-72.5 -30.5q-43 0 -73.5 30.5t-30.5 72.5q0 43 30.5 73t73.5 30z" />
    <glyph glyph-name="omicrontonos" unicode="&#x3cc;" horiz-adv-x="1024" 
d="M509 965q189 0 317.5 -136.5t128.5 -359.5q0 -154 -57.5 -262.5t-164 -171.5t-229.5 -63q-182 0 -308.5 138t-126.5 358q0 221 127 359t313 138zM509 894q-112 0 -184 -101.5t-72 -320.5q0 -223 71.5 -326t184.5 -103q117 0 189.5 103t72.5 337q0 217 -71.5 314
t-190.5 97zM489 1090l-52 198q-22 82 -22 126q0 100 94 100q51 0 75.5 -28t24.5 -64q0 -38 -26 -134l-52 -198h-42z" />
    <glyph glyph-name="upsilontonos" unicode="&#x3cd;" horiz-adv-x="1188" 
d="M56 862v75l332 11v-579q0 -215 73 -270.5t165 -55.5q125 0 181 71t56 267v382q0 52 -36.5 74.5t-129.5 24.5v75l332 11v-592q0 -214 -103 -299.5t-290 -85.5q-220 0 -317 92t-97 293v407q0 52 -36.5 74.5t-129.5 24.5zM622 1090l-52 198q-22 82 -22 126q0 100 94 100
q51 0 75.5 -28t24.5 -64q0 -38 -26 -134l-52 -198h-42z" />
    <glyph glyph-name="omegatonos" unicode="&#x3ce;" horiz-adv-x="1296" 
d="M526 965v-73q-158 0 -215 -123t-57 -309q0 -191 43.5 -304.5t131.5 -113.5q74 0 104 76t30 296v95h169v-95q0 -249 36.5 -310.5t99.5 -61.5q87 0 130.5 113.5t43.5 303.5q0 168 -38.5 267t-91 131t-143.5 35v73q216 0 337 -140t121 -391q0 -231 -98.5 -347t-242.5 -116
q-157 0 -238 137q-89 -137 -239 -137q-147 0 -243.5 118.5t-96.5 338.5q0 199 64.5 315.5t160 168t232.5 53.5zM625 1090l-52 198q-22 82 -22 126q0 100 94 100q51 0 75.5 -28t24.5 -64q0 -38 -26 -134l-52 -198h-42z" />
    <glyph glyph-name="afii10023" unicode="&#x401;" horiz-adv-x="1479" 
d="M134 1479h1172l28 -499h-67q-40 236 -126.5 330t-225.5 94h-290q-35 0 -53 -19t-18 -58v-527h127q102 0 165.5 73t68.5 224h69v-685h-69q-5 170 -69.5 243.5t-175.5 73.5h-116v-588q0 -32 21.5 -49t71.5 -17h229q373 0 430 476h72l-25 -551h-1219v75h101q59 0 83 20.5
t24 59.5v1172q0 39 -21 58t-66 19h-121v75zM547 1863q43 0 73 -29.5t30 -71.5q0 -43 -30.5 -73.5t-72.5 -30.5t-72 31t-30 74q0 42 30 71t72 29zM932 1860q43 0 73 -29.5t30 -72.5t-30.5 -73.5t-72.5 -30.5q-43 0 -73.5 30.5t-30.5 72.5q0 43 30.5 73t73.5 30z" />
    <glyph glyph-name="afii10051" unicode="&#x402;" horiz-adv-x="1640" 
d="M794 637v-492q0 -70 89 -70h112v-75h-650v75h170q70 0 70 63v1198q0 77 -97 77q-287 0 -357 -493h-73l32 559h1200l29 -559h-69q-69 493 -356 493q-65 0 -82.5 -23.5t-17.5 -62.5v-612q175 100 354 100q192 0 317.5 -105t125.5 -322q0 -180 -72.5 -298.5t-233.5 -118.5
q-168 0 -252 132l57 35q76 -82 138 -82q133 0 133 304q0 191 -65 280t-209 89q-127 0 -293 -92z" />
    <glyph glyph-name="afii10052" unicode="&#x403;" horiz-adv-x="1270" 
d="M96 1479h1143l20 -509h-70q-47 284 -147 359t-253 75h-210q-66 0 -66 -66v-1172q0 -53 25 -72t82 -19h154v-75h-678v75h120q85 0 85 79v1176q0 74 -91 74h-114v75zM543 1580l-25 25l171 245q70 102 98.5 124t57.5 22q33 0 58 -24.5t25 -55.5q0 -50 -71 -103z" />
    <glyph glyph-name="afii10053" unicode="&#x404;" horiz-adv-x="1448" 
d="M377 709q2 -200 28.5 -297.5t83.5 -179.5t142 -129.5t197 -47.5q187 0 309.5 116t156.5 340h71q-30 -262 -183 -401t-376 -139q-288 0 -483.5 211t-195.5 525q0 324 190.5 563.5t469.5 239.5q195 0 383 -146l69 143h63l26 -595h-67q-130 519 -465 519q-184 0 -300 -172.5
t-119 -474.5h585v-75h-585z" />
    <glyph glyph-name="afii10054" unicode="&#x405;" horiz-adv-x="1290" 
d="M947 1367l90 129h73l6 -539h-66q-62 248 -183.5 362t-279.5 114q-132 0 -216 -79t-84 -193q0 -71 32 -124.5t95.5 -87t239.5 -71.5q247 -54 346.5 -109t148.5 -138.5t49 -195.5q0 -200 -134.5 -331.5t-347.5 -131.5q-229 0 -398 148l-113 -138h-72v573h72
q42 -237 188 -374t329 -137q148 0 241.5 87.5t93.5 212.5q0 71 -35 124.5t-111 90t-299 88.5q-245 58 -334 130q-125 102 -125 289q0 195 124.5 319.5t318.5 124.5q93 0 177 -33t174 -110z" />
    <glyph glyph-name="afii10055" unicode="&#x406;" horiz-adv-x="834" 
d="M76 1479h682v-75h-117q-78 0 -98.5 -19.5t-20.5 -82.5v-1120q0 -67 18 -84q24 -23 87 -23h131v-75h-682v75h129q68 0 88 20t20 87v1120q0 64 -18 79q-28 23 -103 23h-116v75z" />
    <glyph glyph-name="afii10056" unicode="&#x407;" horiz-adv-x="834" 
d="M76 1479h682v-75h-117q-78 0 -98.5 -19.5t-20.5 -82.5v-1120q0 -67 18 -84q24 -23 87 -23h131v-75h-682v75h129q68 0 88 20t20 87v1120q0 64 -18 79q-28 23 -103 23h-116v75zM224 1863q43 0 73 -29.5t30 -71.5q0 -43 -30.5 -73.5t-72.5 -30.5t-72 31t-30 74q0 42 30 71
t72 29zM609 1860q43 0 73 -29.5t30 -72.5t-30.5 -73.5t-72.5 -30.5q-43 0 -73.5 30.5t-30.5 72.5q0 43 30.5 73t73.5 30z" />
    <glyph glyph-name="afii10057" unicode="&#x408;" horiz-adv-x="1139" 
d="M423 1479h654v-75h-93q-55 0 -78.5 -20t-23.5 -58v-959q0 -111 -54 -200.5t-158 -142t-235 -52.5q-178 0 -291 104.5t-113 255.5q0 112 57 179t140 67q68 0 112 -43.5t44 -110.5q0 -58 -36 -97.5t-83 -39.5q-18 0 -50 10q-27 8 -36 8q-17 0 -27 -14q-11 -14 -11 -42
q0 -75 75.5 -136.5t185.5 -61.5q125 0 197 86.5t72 241.5v947q0 39 -26.5 58.5t-90.5 19.5h-131v75z" />
    <glyph glyph-name="afii10058" unicode="&#x409;" horiz-adv-x="2247" 
d="M1631 1479v-75h-169q-58 0 -76.5 -26t-18.5 -85v-459h300q251 0 390.5 -110t139.5 -311q0 -180 -127 -296.5t-383 -116.5h-737v75h81q65 0 88 13.5t29.5 32.5t6.5 80v1102q0 55 -16.5 74.5t-68.5 19.5h-204q-104 0 -142.5 -35t-49 -98.5t-32.5 -336.5
q-26 -325 -69 -541.5t-134.5 -311.5t-210.5 -95q-85 0 -138.5 51.5t-53.5 142.5q0 72 38.5 113t102.5 41q50 0 75.5 -22.5t46.5 -75.5q14 -37 24 -48t34 -11q92 0 143 267.5t51 635.5q0 223 -33.5 277t-127.5 54h-84v75h1325zM1367 759v-573q0 -60 21.5 -85.5t88.5 -25.5
h126q228 0 297 86t69 253q0 180 -85 262.5t-276 82.5h-241z" />
    <glyph glyph-name="afii10059" unicode="&#x40a;" horiz-adv-x="2286" 
d="M1193 724h-680v-542q0 -68 20.5 -87.5t86.5 -19.5h107v-75h-631v75h98q67 0 87 19.5t20 87.5v1115q0 68 -20.5 87.5t-86.5 19.5h-98v75h631v-75h-107q-68 0 -87.5 -19.5t-19.5 -87.5v-475h680v475q0 68 -20.5 87.5t-86.5 19.5h-107v75h690v-75h-161q-62 0 -82.5 -24.5
t-20.5 -82.5v-463h300q252 0 391.5 -110.5t139.5 -310.5q0 -191 -132 -302t-379 -111h-746v75h94q75 0 97.5 22.5t22.5 84.5v542zM1405 759v-573q0 -60 21.5 -85.5t88.5 -25.5h126q237 0 301.5 93.5t64.5 245.5q0 181 -87.5 263t-273.5 82h-241z" />
    <glyph glyph-name="afii10060" unicode="&#x40b;" horiz-adv-x="1845" 
d="M794 681v-536q0 -70 89 -70h149v-75h-687v75h170q70 0 70 62v1199q0 77 -97 77q-152 0 -242.5 -139.5t-114.5 -325.5h-73l32 531h1200l29 -531h-69q-14 121 -69.5 238.5t-117 172t-169.5 54.5q-65 0 -82.5 -23.5t-17.5 -62.5v-574q192 108 357 108q145 0 277.5 -89.5
t132.5 -317.5v-276q0 -63 20.5 -83t100.5 -20h71v-75h-616v75h96q78 0 98.5 19.5t20.5 83.5v315q0 92 -18.5 146t-79 94.5t-151.5 40.5q-124 0 -309 -93z" />
    <glyph glyph-name="afii10061" unicode="&#x40c;" horiz-adv-x="1550" 
d="M880 774q111 -28 179 -79.5t107 -128.5t74 -235q48 -215 120 -215q79 0 90 205h68q-19 -342 -253 -342q-79 0 -134.5 45t-74.5 111t-36 210q-20 175 -51.5 242t-102 99.5t-232.5 32.5h-121v-563q0 -43 19 -62t75 -19h120v-75h-631v75h113q92 0 92 71v1184q0 74 -92 74
h-113v75h631v-75h-136q-25 0 -51.5 -17t-26.5 -57v-536h202q127 0 171.5 39t58.5 115.5t31 194.5q19 133 43 206t83 117t148 44q96 0 161.5 -51.5t65.5 -135.5q0 -62 -37.5 -105t-94.5 -43q-48 0 -84 32t-36 78q0 27 18 56q10 17 10 31q0 21 -17 37t-41 16q-42 0 -78 -53
t-70 -291q-27 -187 -51 -230t-116 -77zM652 1590l-25 25l171 245q70 102 98.5 124t57.5 22q33 0 58 -24.5t25 -55.5q0 -50 -71 -103z" />
    <glyph glyph-name="afii10062" unicode="&#x40e;" horiz-adv-x="1511" 
d="M723 235l-494 1048q-57 121 -155 121h-31v75h614v-75h-73q-82 0 -106 -14.5t-24 -51.5q0 -22 33 -94l353 -787l283 655q44 100 44 153q0 69 -53.5 104t-111.5 35h-73v75h567v-75q-153 -18 -233 -194l-445 -966q-66 -145 -140.5 -205t-197.5 -60q-125 0 -208 67t-83 170
q0 64 35.5 102.5t90.5 38.5q54 0 88.5 -33t34.5 -80q0 -23 -13 -72q-4 -17 -4 -29q0 -30 29 -53.5t73 -23.5q112 0 200 169zM387 1832q0 62 35 103t91 41q45 0 76 -32t31 -76q0 -48 -40 -84q-51 -46 -51 -61q0 -98 270 -98q155 0 212.5 29.5t57.5 66.5q0 18 -51 63
q-40 36 -40 87q0 49 30.5 77t74.5 28q54 0 91 -42t37 -101q0 -125 -98.5 -202t-328.5 -77q-196 0 -296.5 76.5t-100.5 201.5z" />
    </font>
</defs>
</svg>
