<?xml version="1.0" encoding="UTF-8" standalone="no"?>
<!DOCTYPE svg  PUBLIC '-//W3C//DTD SVG 1.1//EN'  'http://www.w3.org/Graphics/SVG/1.1/DTD/svg11.dtd'>
<svg xmlns="http://www.w3.org/2000/svg">
<defs>
<font id="TwCenMT-Regular" horiz-adv-x="1130">
<font-face underline-position="-92" font-weight="400" descent="-410" panose-1="2 11 6 2 2 1 4 2 6 3" units-per-em="2048" unicode-range="U+0020-25CA" bbox="-375 -475 2157 1878" x-height="825" underline-thickness="120" font-family="TwCenMT" ascent="1638" cap-height="1274"/>
<missing-glyph horiz-adv-x="2048"/>
<glyph glyph-name=".notdef" horiz-adv-x="2048"/>
<glyph glyph-name=".null" horiz-adv-x="0"/>
<glyph glyph-name="nonmarkingreturn" horiz-adv-x="2048"/>
<glyph glyph-name="space" horiz-adv-x="565" unicode=" "/>
<glyph glyph-name="exclam" horiz-adv-x="449" unicode="!" d="M115 90q0 44 32 76.5t76 32.5q45 0 77 -32.5t32 -76.5q0 -45 -32 -76.5t-77 -31.5t-76.5 31.5t-31.5 76.5zM135 1274h168v-959h-168v959z"/>
<glyph glyph-name="quotedbl" horiz-adv-x="727" unicode='&quot;' d="M475 946l-47 281v239h205v-239l-49 -281h-109zM145 946l-51 281v239h207v-239l-47 -281h-109z"/>
<glyph glyph-name="numbersign" horiz-adv-x="1368" unicode="#" d="M512 850l-78 -369h424l76 369h-422zM90 973h326l86 403h121l-86 -403h421l84 403h123l-86 -403h199v-123h-223l-76 -371h299v-123h-324l-84 -401h-122l86 401h-424l-84 -401h-123l84 401h-197v123h223l78 371h-301v123z"/>
<glyph glyph-name="dollar" d="M625 578v-433q93 12 143.5 64.5t50.5 132.5q0 147 -194 236zM535 821v307q-69 -14 -106.5 -51.5t-37.5 -87.5q0 -107 144 -168zM535 1470h90v-153q240 -36 346 -187l-142 -112q-79 106 -204 115v-353q234 -99 306.5 -217t72.5 -223q0 -144 -99.5 -253.5t-279.5 -125.5 v-194h-90v194q-157 28 -247.5 112.5t-154.5 235.5l180 47q45 -98 93 -142t129 -60v464q-324 125 -324 373q0 118 86.5 208.5t237.5 117.5v153z" unicode="$"/>
<glyph glyph-name="percent" horiz-adv-x="1706" unicode="%" d="M1509 266q0 234 -143 234q-152 0 -152 -215q0 -130 34.5 -188t113.5 -58q147 0 147 227zM1081 248q0 185 74.5 284t212.5 99q125 0 201 -96t76 -256q0 -177 -74 -273t-209 -96q-127 0 -204 91.5t-77 246.5zM1241 1315h131l-893 -1405h-133zM492 961q0 221 -142 221 q-155 0 -155 -234q0 -108 39 -166.5t110 -58.5q77 0 112.5 57t35.5 181zM59 950q0 168 78 266.5t209 98.5q133 0 209 -97.5t76 -269.5q0 -165 -77 -260.5t-208 -95.5q-132 0 -209.5 96t-77.5 262z"/>
<glyph glyph-name="ampersand" horiz-adv-x="1366" unicode="&amp;" d="M819 285l-299 317q-170 -110 -215 -165t-45 -111q0 -84 74.5 -144.5t179.5 -60.5q79 0 147.5 39.5t157.5 124.5zM547 811q88 60 132 107t44 100q0 61 -41.5 98t-112.5 37q-66 0 -108.5 -36t-42.5 -91q0 -80 129 -215zM664 690l266 -282l143 157l123 -110l-152 -170 l269 -283h-228l-151 160q-215 -207 -420 -207q-176 0 -304 109.5t-128 259.5q0 112 57 184.5t262 212.5q-19 28 -32 45q-88 112 -104.5 164.5t-16.5 93.5q0 111 89 203t238 92q130 0 221 -88t91 -213q0 -180 -223 -328z"/>
<glyph glyph-name="quotesingle" horiz-adv-x="391" unicode="&apos;" d="M139 946l-47 275v245h207v-245l-49 -275h-111z"/>
<glyph glyph-name="parenleft" horiz-adv-x="555" unicode="(" d="M313 1315l140 -64q-110 -213 -150.5 -378t-40.5 -375q0 -241 39 -417.5t143 -395.5l-131 -74q-204 393 -204 842q0 236 43 434.5t161 427.5z"/>
<glyph glyph-name="parenright" horiz-adv-x="555" unicode=")" d="M88 1251l137 64q213 -363 213 -860q0 -441 -202 -850l-138 73q125 285 155 439t30 354q0 226 -41 401.5t-154 378.5z"/>
<glyph glyph-name="asterisk" horiz-adv-x="897" unicode="*" d="M469 1081l31 -16q55 39 100.5 94t72 71.5t56.5 16.5q35 0 58.5 -23.5t23.5 -58.5q0 -44 -32 -64.5t-118 -35t-139 -41.5l-2 -33q72 -33 151 -45t109.5 -33.5t30.5 -66.5q0 -34 -24.5 -58t-59.5 -24q-48 0 -117 82q-75 89 -112 106l-29 -14q2 -52 30.5 -129.5t28.5 -110.5 q0 -41 -22.5 -66.5t-59.5 -25.5q-36 0 -60 26t-24 64q0 31 29.5 111.5t30.5 130.5l-27 14q-51 -40 -113.5 -115t-113.5 -75q-32 0 -57 25t-25 57q0 84 150 108q87 14 135 41l2 31q-53 25 -138 39t-117 38.5t-32 63.5q0 36 23 61t55 25q31 0 54.5 -15.5t72 -72t104.5 -96.5 l27 16q-2 52 -31 130t-29 108q0 37 23.5 61.5t58.5 24.5q37 0 60.5 -24t23.5 -62q0 -31 -28 -110t-31 -130z"/>
<glyph glyph-name="plus" horiz-adv-x="1366" unicode="+" d="M137 727h477v479h131v-479h482v-131h-482v-475h-131v475h-477v131z"/>
<glyph glyph-name="comma" horiz-adv-x="449" unicode="," d="M203 252l215 -84l-236 -512l-155 61z"/>
<glyph glyph-name="hyphen" horiz-adv-x="682" unicode="-" d="M109 498h464v-170h-464v170z"/>
<glyph glyph-name="period" horiz-adv-x="449" unicode="." d="M86 117q0 55 39.5 95t95.5 40q55 0 95 -40t40 -95q0 -56 -39.5 -95.5t-95.5 -39.5t-95.5 39t-39.5 96z"/>
<glyph glyph-name="slash" horiz-adv-x="1024" unicode="/" d="M887 1485h114l-829 -1936h-119z"/>
<glyph glyph-name="zero" d="M862 641q0 216 -85 355t-214 139q-133 0 -217 -137.5t-84 -362.5q0 -223 85 -358.5t220 -135.5q130 0 212.5 138.5t82.5 361.5zM571 1317q210 0 341.5 -188.5t131.5 -489.5q0 -312 -141.5 -497t-339.5 -185q-206 0 -342.5 189.5t-136.5 482.5q0 325 140.5 506.5 t336.5 181.5h10z" unicode="0"/>
<glyph glyph-name="one" d="M324 1270h331v-1270h-172v1102h-217z" unicode="1"/>
<glyph glyph-name="two" d="M494 170h485v-170h-870l649 690q73 80 73 176q0 113 -77 196t-181 83q-86 0 -161.5 -55t-98.5 -170h-168q25 188 148.5 292.5t290.5 104.5t291 -131.5t124 -311.5q0 -87 -31.5 -159.5t-111.5 -157.5z" unicode="2"/>
<glyph glyph-name="three" d="M346 987h-186q18 161 126.5 245.5t262.5 84.5q177 0 293 -101t116 -253q0 -189 -192 -289q225 -116 225 -320q0 -160 -122.5 -277.5t-290.5 -117.5q-169 0 -292.5 84.5t-162.5 267.5h190q62 -198 254 -198q98 0 171 67.5t73 157.5q0 94 -67 172.5t-220 81.5v158 q117 2 183.5 57.5t66.5 142.5q0 89 -62 151t-151 62q-84 0 -134 -42t-81 -134z" unicode="3"/>
<glyph glyph-name="four" d="M735 907l-405 -508h409v508h-4zM895 1313v-914h123v-149h-123v-250h-156v250h-714z" unicode="4"/>
<glyph glyph-name="five" d="M403 1276h574v-172h-440l-68 -244q76 8 88 8q168 0 293 -134t125 -314q0 -193 -142.5 -327t-347.5 -134q-261 0 -422 227l156 99q115 -144 273 -144q130 0 215.5 81.5t85.5 205.5q0 120 -88.5 202.5t-217.5 82.5q-77 0 -134 -27.5t-126 -87.5z" unicode="5"/>
<glyph glyph-name="six" d="M844 422q0 116 -83.5 200.5t-197.5 84.5t-199 -85.5t-85 -199.5q0 -118 82.5 -199.5t201.5 -81.5q117 0 199 82t82 199zM639 1343l133 -92l-280 -409q35 4 49 4l37 2q178 0 313 -127t135 -293q0 -197 -134 -334t-327 -137t-330 134.5t-137 324.5q0 146 86 270z" unicode="6"/>
<glyph glyph-name="seven" d="M53 1278h1051l-897 -1339l-133 88l721 1083h-742v168z" unicode="7"/>
<glyph glyph-name="eight" d="M821 346q0 96 -77.5 165t-186.5 69q-106 0 -178 -68.5t-72 -169.5q0 -99 75.5 -165t188.5 -66q105 0 177.5 68t72.5 167zM780 948q0 90 -64 153.5t-155 63.5q-90 0 -154.5 -63.5t-64.5 -153.5t64.5 -153.5t154.5 -63.5q91 0 155 63.5t64 153.5zM809 659 q99 -56 147 -141.5t48 -175.5q0 -158 -128 -270.5t-311 -112.5q-185 0 -312.5 111.5t-127.5 271.5q0 193 186 317q-79 69 -115 136t-36 157q0 147 119.5 256t281.5 109t282 -108t120 -253q0 -169 -154 -297z" unicode="8"/>
<glyph glyph-name="nine" d="M848 852q0 118 -83 202.5t-198 84.5q-122 0 -204 -83.5t-82 -207.5q0 -114 87 -195.5t210 -81.5q113 0 191.5 81.5t78.5 199.5zM492 -66l-136 95l281 407q-59 -8 -90 -8q-189 0 -317 127.5t-128 314.5q0 181 139.5 316t325.5 135q184 0 322.5 -137.5t138.5 -319.5 q0 -147 -94 -284z" unicode="9"/>
<glyph glyph-name="colon" horiz-adv-x="449" unicode=":" d="M86 119q0 57 39.5 97t95.5 40q55 0 95 -40.5t40 -96.5q0 -55 -40 -95t-95 -40q-56 0 -95.5 39.5t-39.5 95.5zM86 559q0 57 39.5 96t95.5 39t95.5 -39.5t39.5 -95.5t-39 -95.5t-96 -39.5q-56 0 -95.5 39.5t-39.5 95.5z"/>
<glyph glyph-name="semicolon" horiz-adv-x="555" unicode=";" d="M254 256l215 -86l-244 -512l-153 66zM188 563q0 56 40 95.5t96 39.5t95.5 -39.5t39.5 -95.5q0 -57 -39.5 -97t-95.5 -40q-57 0 -96.5 40t-39.5 97z"/>
<glyph glyph-name="less" horiz-adv-x="1366" unicode="&lt;" d="M1225 147l-1084 457v119l1084 457v-144l-908 -372l908 -375v-142z"/>
<glyph glyph-name="equal" horiz-adv-x="1366" unicode="=" d="M139 498h1088v-131h-1088v131zM139 967h1088v-133h-1088v133z"/>
<glyph glyph-name="greater" horiz-adv-x="1366" unicode="&gt;" d="M139 1180l1086 -459v-117l-1086 -457v142l910 373l-910 374v144z"/>
<glyph glyph-name="question" horiz-adv-x="788" unicode="?" d="M285 90q0 45 32.5 77t77.5 32t77 -32.5t32 -76.5t-32 -76t-77 -32t-77.5 32t-32.5 76zM508 594h170q-27 -147 -113.5 -223t-199.5 -76q-116 0 -189.5 68t-73.5 174q0 64 28.5 116.5t74.5 87t153.5 84.5t148 96.5t40.5 92.5q0 56 -45.5 97.5t-108.5 41.5q-158 0 -180 -197 h-164q18 185 109.5 273t222.5 88q141 0 237.5 -85.5t96.5 -209.5q0 -88 -51.5 -172t-251.5 -180q-82 -39 -116 -68t-34 -63t28.5 -55t76.5 -21q103 0 141 131z"/>
<glyph glyph-name="at" horiz-adv-x="2079" unicode="@" d="M1026 936q-130 0 -237 -154.5t-107 -347.5q0 -129 61.5 -209t159.5 -80q78 0 166 70.5t140.5 191t52.5 238.5q0 133 -64.5 212t-171.5 79zM1829 18h180q-83 -170 -308.5 -309t-574.5 -139q-471 0 -740 240.5t-269 658.5q0 279 129 525.5t348 372.5t512 126 q396 0 626 -235t230 -529q0 -301 -192 -517t-404 -216q-107 0 -149.5 39.5t-49.5 128.5q-148 -166 -303 -166q-157 0 -261.5 128t-104.5 325q0 146 75 301.5t196.5 243t246.5 87.5q187 0 303 -184l33 156h180l-160 -742q-14 -67 -14 -86q0 -27 21 -46t51 -19q50 0 148 70 t166 203.5t68 281.5q0 270 -204 450.5t-512 180.5q-358 0 -595 -246t-237 -617q0 -363 228 -565.5t638 -202.5q255 0 441 92t258 209z"/>
<glyph glyph-name="A" horiz-adv-x="1237" unicode="A" d="M608 924l-205 -453h410zM608 1323l602 -1323h-182l-149 326h-541l-145 -326h-181z"/>
<glyph glyph-name="B" horiz-adv-x="1024" unicode="B" d="M330 592v-436h14q225 0 307 72t82 147q0 99 -92 158t-252 59h-59zM330 1120v-377q144 2 220.5 55t76.5 146q0 81 -69 129.5t-185 48.5q-25 0 -43 -2zM158 1274h202q199 0 325 -86.5t126 -218.5q0 -161 -186 -269q288 -96 288 -333q0 -165 -148.5 -266t-397.5 -101h-209 v1274z"/>
<glyph glyph-name="C" horiz-adv-x="1237" unicode="C" d="M1163 1231v-197q-206 101 -379 101q-222 0 -374 -143.5t-152 -352.5q0 -213 155.5 -355.5t389.5 -142.5q170 0 360 107v-199q-173 -92 -375 -92q-296 0 -506 200.5t-210 483.5q0 278 206.5 476t497.5 198q187 0 387 -84z"/>
<glyph glyph-name="D" horiz-adv-x="1237" unicode="D" d="M309 1104v-932h10q194 0 292 17.5t186 76.5t140 156.5t52 214.5q0 147 -83 266t-198.5 160t-310.5 41h-88zM135 1274h309q367 0 546 -194t179 -443q0 -251 -185 -444t-538 -193h-311v1274z"/>
<glyph glyph-name="E" horiz-adv-x="897" unicode="E" d="M119 1274h706v-174h-534v-318h534v-172h-534v-438h534v-172h-706v1274z"/>
<glyph glyph-name="F" horiz-adv-x="897" unicode="F" d="M119 1274h706v-174h-534v-318h534v-172h-532v-610h-174v1274z"/>
<glyph glyph-name="G" horiz-adv-x="1579" unicode="G" d="M1364 1071l-129 -127q-195 191 -451 191q-224 0 -373 -144t-149 -360q0 -189 144.5 -340.5t398.5 -151.5q381 0 479 332h-344v174h543q0 -131 -17.5 -209t-72.5 -172t-146.5 -168.5t-196 -106.5t-249.5 -32q-330 0 -526.5 207.5t-196.5 474.5q0 281 201 478.5t487 197.5 q170 0 310.5 -51.5t287.5 -192.5z"/>
<glyph glyph-name="H" horiz-adv-x="1237" unicode="H" d="M139 1274h174v-490h609v490h172v-1274h-172v612h-609v-612h-174v1274z"/>
<glyph glyph-name="I" horiz-adv-x="449" unicode="I" d="M131 1274h172v-1274h-172v1274z"/>
<glyph glyph-name="J" horiz-adv-x="788" unicode="J" d="M430 1272h174v-934q0 -381 -317 -381q-110 0 -217 57l86 142q84 -29 137 -29q137 0 137 184v961z"/>
<glyph glyph-name="K" d="M133 1274h174v-518l539 518h244l-615 -592l619 -682h-222l-565 621v-621h-174v1274z" unicode="K"/>
<glyph glyph-name="L" horiz-adv-x="788" unicode="L" d="M158 1274h172v-1102h415v-172h-587v1274z"/>
<glyph glyph-name="M" horiz-adv-x="1579" unicode="M" d="M1184 1327l348 -1327h-170l-211 811l-363 -860l-364 866l-213 -817h-170l348 1327l399 -950z"/>
<glyph glyph-name="N" horiz-adv-x="1366" unicode="N" d="M123 1325l942 -969v918h174v-1333l-942 964v-905h-174v1325z"/>
<glyph glyph-name="O" horiz-adv-x="1579" unicode="O" d="M1300 637q0 211 -152 355.5t-374 144.5q-211 0 -361.5 -147t-150.5 -353q0 -209 154.5 -353.5t378.5 -144.5q206 0 355.5 147.5t149.5 350.5zM80 645q0 276 208 473t500 197q285 0 491 -198.5t206 -471.5q0 -289 -203.5 -488.5t-499.5 -199.5q-292 0 -497 201t-205 487z "/>
<glyph glyph-name="P" horiz-adv-x="1024" unicode="P" d="M346 1122v-446q196 2 290.5 55.5t94.5 171.5q0 89 -71.5 154t-313.5 65zM174 1274h256q217 0 350 -102t133 -265q0 -164 -138.5 -273.5t-413.5 -109.5h-15v-524h-172v1274z"/>
<glyph glyph-name="Q" horiz-adv-x="1579" unicode="Q" d="M995 182l-280 299h227l197 -209q161 155 161 367q0 211 -151 354.5t-375 143.5q-213 0 -362.5 -146t-149.5 -354t153 -353t373 -145q92 0 207 43zM1264 139l200 -217h-227l-113 119q-181 -84 -344 -84q-293 0 -497.5 201t-204.5 487q0 276 207 473t499 197 q287 0 494 -196t207 -468q0 -308 -221 -512z"/>
<glyph glyph-name="R" horiz-adv-x="1024" unicode="R" d="M334 1120v-444h25q360 0 360 223q0 81 -45 132.5t-120 70t-220 18.5zM160 1274h276q206 0 335.5 -102.5t129.5 -262.5q0 -128 -84 -226t-262 -138l371 -545h-199l-354 524h-39v-524h-174v1274z"/>
<glyph glyph-name="S" horiz-adv-x="1024" unicode="S" d="M911 1133l-141 -113q-56 58 -101.5 86.5t-131.5 28.5q-94 0 -152.5 -42.5t-58.5 -109.5q0 -58 51 -102.5t174 -97t191.5 -98t112.5 -100.5t65.5 -116t21.5 -129q0 -159 -115.5 -271t-279.5 -112q-160 0 -282.5 87.5t-188.5 262.5l174 49q95 -215 291 -215q95 0 158 57 t63 144q0 52 -33 104.5t-82 86.5t-156.5 77.5t-165 80t-99.5 87t-61.5 100.5t-19.5 107q0 137 110 233.5t267 96.5q104 0 211 -45t178 -137z"/>
<glyph glyph-name="T" horiz-adv-x="897" unicode="T" d="M55 1274h779v-174h-304v-1100h-172v1100h-303v174z"/>
<glyph glyph-name="U" horiz-adv-x="1237" unicode="U" d="M127 1272h174v-783q0 -174 83.5 -269t236.5 -95q152 0 236.5 87.5t84.5 246.5v813h174v-801q0 -234 -133.5 -374t-355.5 -140q-227 0 -363.5 142t-136.5 419v754z"/>
<glyph glyph-name="V" horiz-adv-x="1237" unicode="V" d="M27 1272h184l399 -901l402 901h186l-590 -1315z"/>
<glyph glyph-name="W" horiz-adv-x="2048" unicode="W" d="M1022 1323l410 -940l385 889h180l-565 -1311l-410 942l-410 -942l-565 1311h180l387 -897z"/>
<glyph glyph-name="X" d="M84 1274h192l285 -465l281 465h194l-379 -623l390 -651h-193l-293 489l-297 -489h-194l393 651z" unicode="X"/>
<glyph glyph-name="Y" d="M57 1274h193l313 -512l309 512h193l-418 -690v-584h-174v582z" unicode="Y"/>
<glyph glyph-name="Z" horiz-adv-x="1024" unicode="Z" d="M96 1274h860l-608 -1102h596v-172h-878l604 1100h-574v174z"/>
<glyph glyph-name="bracketleft" horiz-adv-x="555" unicode="[" d="M133 1294h369v-125h-230v-1368h230v-125h-369v1618z"/>
<glyph glyph-name="backslash" horiz-adv-x="1024" unicode="\" d="M68 1483h112l832 -1934h-113z"/>
<glyph glyph-name="bracketright" horiz-adv-x="555" unicode="]" d="M33 1294h370v-1618h-366v125h227v1368h-231v125z"/>
<glyph glyph-name="asciicircum" horiz-adv-x="961" unicode="^" d="M238 690h-185l355 801h145l354 -801h-182l-246 598z"/>
<glyph glyph-name="underscore" horiz-adv-x="1024" unicode="_" d="M-14 -254v102h1052v-102h-1052z"/>
<glyph glyph-name="grave" horiz-adv-x="682" unicode="`" d="M465 977h-146l-231 278h242z"/>
<glyph glyph-name="a" d="M834 410q0 113 -81 193.5t-194 80.5q-110 0 -192 -80t-82 -188q0 -117 80 -199t194 -82q113 0 194 81.5t81 193.5zM811 825h174v-825h-174v164q-127 -187 -315 -187q-163 0 -278.5 128t-115.5 311q0 173 116.5 302.5t273.5 129.5q97 0 184 -53t135 -138v168z" unicode="a"/>
<glyph glyph-name="b" d="M844 416q0 113 -81 193.5t-196 80.5q-111 0 -192.5 -81.5t-81.5 -192.5q0 -116 81.5 -195.5t200.5 -79.5q110 0 189.5 81t79.5 194zM143 1298h172v-636q111 186 318 186q160 0 277.5 -128t117.5 -304t-115.5 -307.5t-269.5 -131.5q-99 0 -188 53t-140 144v-174h-172v1298 z" unicode="b"/>
<glyph glyph-name="c" horiz-adv-x="788" unicode="c" d="M735 252v-199q-133 -76 -258 -76q-171 0 -299.5 128.5t-128.5 297.5q0 192 128 318.5t321 126.5q115 0 237 -60v-194q-131 84 -248 84q-108 0 -189 -76t-81 -178q0 -115 76 -193.5t186 -78.5q112 0 256 100z"/>
<glyph glyph-name="d" d="M827 414q0 111 -81 192.5t-193 81.5q-116 0 -196.5 -79.5t-80.5 -194.5q0 -110 82 -192.5t191 -82.5q116 0 197 80t81 195zM807 1298h172v-1298h-170v172q-123 -195 -322 -195q-161 0 -276 129t-115 310q0 177 117 304.5t279 127.5q97 0 181 -54t134 -141v645z" unicode="d"/>
<glyph glyph-name="e" horiz-adv-x="1024" unicode="e" d="M254 518h504q-84 170 -248 170q-179 0 -256 -170zM940 379h-704q23 -127 104.5 -185.5t177.5 -58.5q148 0 248 123l127 -96q-143 -185 -383 -185q-184 0 -308 126t-124 313q0 175 125.5 303.5t306.5 128.5q178 0 305 -130q125 -128 125 -333v-6z"/>
<glyph glyph-name="f" horiz-adv-x="682" unicode="f" d="M614 1286v-176q-76 51 -131 51q-46 0 -72 -34t-26 -95v-207h229v-159h-229v-666h-174v666h-152v159h152v195q0 141 72.5 225t193.5 84q60 0 137 -43z"/>
<glyph glyph-name="g" d="M827 414q0 116 -80.5 194t-199.5 78q-109 0 -192 -81t-83 -187q0 -115 82 -198t195 -83q115 0 196.5 81t81.5 196zM803 825h170v-792q0 -175 -120.5 -297.5t-291.5 -122.5q-130 0 -239 70.5t-160 214.5h180q81 -134 225 -134q98 0 167 70.5t69 169.5v156 q-126 -183 -318 -183q-158 0 -275.5 130.5t-117.5 308.5t114.5 305t272.5 127q204 0 324 -197v174z" unicode="g"/>
<glyph glyph-name="h" horiz-adv-x="897" unicode="h" d="M78 1298h174v-608q72 83 134.5 120.5t152.5 37.5q105 0 181.5 -80.5t76.5 -192.5v-575h-174v526q0 78 -39.5 125t-104.5 47q-94 0 -160.5 -71t-66.5 -172v-455h-174v1298z"/>
<glyph glyph-name="i" horiz-adv-x="449" unicode="i" d="M133 825h172v-825h-172v825zM84 1096q0 54 40 93.5t95 39.5q54 0 93.5 -39.5t39.5 -93.5q0 -55 -39.5 -94t-93.5 -39q-55 0 -95 39t-40 94z"/>
<glyph glyph-name="j" horiz-adv-x="449" unicode="j" d="M135 825h174v-1212h-174v1212zM86 1094q0 55 40 95t95 40t95 -40t40 -95t-40 -95.5t-95 -40.5t-95 40.5t-40 95.5z"/>
<glyph glyph-name="k" horiz-adv-x="897" unicode="k" d="M106 1298h173v-835l342 362h225l-357 -381l361 -444h-215l-356 436v-436h-173v1298z"/>
<glyph glyph-name="l" horiz-adv-x="449" unicode="l" d="M141 1298h174v-1298h-174v1298z"/>
<glyph glyph-name="m" horiz-adv-x="1366" unicode="m" d="M100 0v825h172v-127q61 78 116.5 114t127.5 36q94 0 147.5 -41t90.5 -131q65 90 125.5 131t140.5 41q98 0 169 -73.5t71 -174.5v-600h-173v555q0 137 -135 137q-77 0 -130.5 -70t-53.5 -173v-449h-174v532q0 162 -133 162q-79 0 -134 -66t-55 -163v-465h-172z"/>
<glyph glyph-name="n" horiz-adv-x="897" unicode="n" d="M84 0v825h170v-137q75 83 136 121.5t136 38.5q112 0 191.5 -74t79.5 -178v-596h-174v545q0 67 -43.5 111t-110.5 44q-87 0 -150 -73.5t-63 -177.5v-449h-172z"/>
<glyph glyph-name="o" horiz-adv-x="1024" unicode="o" d="M786 416q0 105 -80 182.5t-190 77.5q-113 0 -194.5 -78.5t-81.5 -187.5q0 -104 82.5 -182t193.5 -78q108 0 189 80t81 186zM70 416q0 169 133.5 300.5t306.5 131.5q178 0 311 -129.5t133 -302.5q0 -174 -130.5 -306.5t-301.5 -132.5q-183 0 -317.5 131t-134.5 308z"/>
<glyph glyph-name="p" d="M840 416q0 109 -82 190.5t-193 81.5q-113 0 -195.5 -81t-82.5 -191q0 -113 81.5 -196t192.5 -83q115 0 197 82t82 197zM311 825v-166q125 189 320 189q160 0 275.5 -127.5t115.5 -304.5q0 -179 -117 -309t-276 -130q-92 0 -176.5 48t-139.5 139v-551h-174v1212h172z" unicode="p"/>
<glyph glyph-name="q" d="M829 416q0 110 -83 190t-199 80q-109 0 -188.5 -82t-79.5 -194q0 -110 82 -191.5t194 -81.5q115 0 194.5 81t79.5 198zM807 655v170h172v-1212h-172v549q-129 -185 -315 -185q-160 0 -278 129t-118 306q0 176 117.5 306t275.5 130q94 0 182 -53.5t136 -139.5z" unicode="q"/>
<glyph glyph-name="r" horiz-adv-x="682" unicode="r" d="M309 825v-170q58 102 113.5 147.5t144.5 45.5q25 0 72 -12l-53 -174q-50 10 -66 10q-88 0 -147.5 -61.5t-59.5 -153.5v-457h-174v825h170z"/>
<glyph glyph-name="s" horiz-adv-x="682" unicode="s" d="M614 727l-116 -102q-45 32 -78 48.5t-78 16.5q-106 0 -106 -78q0 -56 134.5 -108.5t193.5 -115.5t59 -152q0 -104 -85 -181.5t-200 -77.5q-175 0 -287 162l137 66q72 -70 150 -70q54 0 94.5 29.5t40.5 68.5q0 69 -142 124t-196.5 111.5t-54.5 139.5q0 103 77.5 171.5 t194.5 68.5t262 -121z"/>
<glyph glyph-name="t" horiz-adv-x="555" unicode="t" d="M172 1065h174v-240h172v-159h-172v-666h-174v666h-137v161h137v238z"/>
<glyph glyph-name="u" horiz-adv-x="897" unicode="u" d="M86 825h174v-465q0 -215 189 -215q84 0 133 57.5t49 157.5v465h172v-493q0 -155 -101 -255t-258 -100q-160 0 -259 100t-99 261v487z"/>
<glyph glyph-name="v" horiz-adv-x="897" unicode="v" d="M31 825h182l236 -477l229 477h184l-416 -856z"/>
<glyph glyph-name="w" horiz-adv-x="1366" unicode="w" d="M680 860l231 -547l244 512h152l-406 -848l-221 525l-221 -518l-404 841h152l244 -506z"/>
<glyph glyph-name="x" horiz-adv-x="1024" unicode="x" d="M117 825h211l184 -235l180 235h209l-287 -372l347 -453h-207l-244 315l-246 -315h-205l349 453z"/>
<glyph glyph-name="y" horiz-adv-x="1024" unicode="y" d="M63 825h197l299 -448l207 448h180l-557 -1212h-182l272 590z"/>
<glyph glyph-name="z" horiz-adv-x="897" unicode="z" d="M51 825h780l-497 -673h493v-152h-786l502 674h-492v151z"/>
<glyph glyph-name="braceleft" horiz-adv-x="684" unicode="{" d="M57 403v164q67 0 120 37t70 108t18 293t27 280.5t77.5 109.5t212.5 51h55v-156h-31q-109 0 -140.5 -39t-31.5 -168v-147q0 -206 -45 -303.5t-164 -147.5q113 -45 161 -143t48 -309v-146q0 -127 30.5 -166.5t141.5 -39.5h31v-156h-55q-163 0 -215.5 53.5t-76.5 109 t-25 278.5t-18.5 294t-70.5 107t-119 36z"/>
<glyph glyph-name="bar" horiz-adv-x="1079" unicode="|" d="M473 1425h133v-1701h-133v1701z"/>
<glyph glyph-name="braceright" horiz-adv-x="684" unicode="}" d="M627 567v-164q-67 0 -120 -36.5t-70 -108t-18 -293t-27 -280t-77.5 -109.5t-212.5 -51h-55v156h31q109 0 140.5 39t31.5 167v146q0 211 48 309t161 143q-131 59 -170 162t-39 289v147q0 129 -31.5 168t-140.5 39h-31v156h55q163 0 215.5 -53.5t76.5 -109.5t25 -278.5 t18.5 -293.5t70.5 -107.5t119 -36.5z"/>
<glyph glyph-name="asciitilde" horiz-adv-x="1343" unicode="~" d="M1212 846v-146q-152 -127 -284 -127q-72 0 -133.5 23t-183 81t-189.5 58q-128 0 -291 -137v143q157 125 293 125q60 0 121.5 -21t187.5 -80.5t191 -59.5q130 0 288 141z"/>
<glyph glyph-name="uni00A0" horiz-adv-x="565" unicode=" "/>
<glyph glyph-name="exclamdown" horiz-adv-x="449" unicode="¡" d="M141 788h170v-956h-170v956zM117 1018q0 44 32 76t76 32q45 0 77 -32t32 -76q0 -46 -32 -78.5t-77 -32.5q-44 0 -76 32.5t-32 78.5z"/>
<glyph glyph-name="cent" horiz-adv-x="897" unicode="¢" d="M358 217l160 449q-114 -7 -185 -82.5t-71 -177.5q0 -64 22.5 -103t73.5 -86zM705 1196h88l-125 -362q73 -21 143 -70v-219q-103 88 -207 114l-168 -481q53 -12 90 -12q133 0 283 92v-207q-137 -69 -270 -69q-67 0 -164 26l-135 -379h-90l147 416q-139 98 -179 186.5 t-40 176.5q0 183 132.5 311.5t321.5 128.5h50z"/>
<glyph glyph-name="sterling" d="M367 164q-73 45 -121 45q-32 0 -53 -20t-21 -50q0 -29 20.5 -49t49.5 -20q60 0 125 94zM975 987h-184q-15 182 -150 182q-67 0 -106 -45.5t-39 -124.5q0 -65 43 -249h266v-146h-234q13 -55 13 -100q0 -116 -52 -256q124 -72 175 -95.5t88 -23.5q59 0 94 48.5t35 133.5v21 h155q0 -185 -80.5 -279t-212.5 -94q-63 0 -120 24.5t-207 116.5q-104 -137 -215 -137q-70 0 -119 52.5t-49 127.5q0 81 55 136t135 55q53 0 146 -37q10 48 10 88q0 101 -41 221h-277v144h248q-24 141 -24 206q0 183 102.5 274t224.5 91q128 0 218 -88.5t102 -245.5z" unicode="£"/>
<glyph glyph-name="currency" horiz-adv-x="1366" unicode="¤" d="M686 987q-135 0 -231.5 -95.5t-96.5 -229.5t95.5 -230t228.5 -96q134 0 230 96t96 230t-94.5 229.5t-227.5 95.5zM195 1061l88 90l129 -129q63 49 116 70.5t166 21.5q90 0 142.5 -22t117.5 -70l127 129l88 -90l-127 -127q49 -68 71 -121t22 -158q0 -95 -21.5 -146.5 t-71.5 -115.5l127 -129l-88 -88l-127 127q-70 -49 -123.5 -70.5t-148.5 -21.5q-106 0 -157.5 22t-112.5 70l-127 -127l-90 88l129 129q-47 71 -69 126t-22 151t22 148t69 116z"/>
<glyph glyph-name="yen" d="M698 956h-239l121 -198zM387 1075h383l119 197h192l-118 -197h84v-119h-156l-158 -258h314v-118h-385v-580h-166v580h-387v118h315l-158 258h-157v119h84l-119 197h192z" unicode="¥"/>
<glyph glyph-name="brokenbar" horiz-adv-x="1079" unicode="¦" d="M473 446h133v-722h-133v722zM473 1425h133v-725h-133v725z"/>
<glyph glyph-name="section" horiz-adv-x="897" unicode="§" d="M408 262l71 -43q187 71 187 232q0 54 -43 110t-215 158q-187 -80 -187 -225q0 -74 44.5 -123.5t142.5 -108.5zM786 1038h-174q-36 131 -176 131q-66 0 -105.5 -31t-39.5 -81q0 -46 44.5 -88t184.5 -118.5t217.5 -174t77.5 -223.5q0 -193 -223 -303q180 -120 180 -275 q0 -105 -93 -183.5t-220 -78.5q-142 0 -236.5 73.5t-120.5 209.5h172q28 -68 67.5 -98.5t109.5 -30.5q63 0 105 30.5t42 77.5q0 49 -47 94.5t-187.5 122t-217 170.5t-76.5 215q0 203 227 309q-180 116 -180 269q0 113 94 189.5t235 76.5q122 0 218 -70.5t122 -212.5z"/>
<glyph glyph-name="dieresis" horiz-adv-x="682" unicode="¨" d="M438 1098q0 43 31 73.5t74 30.5q44 0 75 -30.5t31 -73.5q0 -45 -31 -76t-75 -31q-43 0 -74 31.5t-31 75.5zM33 1098q0 43 31 73.5t75 30.5q43 0 74 -30.5t31 -73.5q0 -44 -31 -75.5t-74 -31.5q-44 0 -75 31t-31 76z"/>
<glyph glyph-name="copyright" horiz-adv-x="1511" unicode="©" d="M997 614l123 -36q-32 -130 -130.5 -202.5t-231.5 -72.5q-185 0 -291.5 118.5t-106.5 326.5q0 186 110.5 298.5t293.5 112.5q130 0 218.5 -60.5t121.5 -174.5l-119 -29q-59 154 -233 154q-115 0 -185.5 -88t-70.5 -232t69 -225.5t191 -81.5q85 0 151 51t90 141zM1384 737 q0 259 -185 444t-443 185q-260 0 -445.5 -185t-185.5 -444q0 -260 185.5 -445.5t445.5 -185.5q258 0 443 186t185 445zM0 737q0 311 222 532.5t534 221.5q310 0 531.5 -221.5t221.5 -532.5t-221.5 -533t-531.5 -222q-312 0 -534 221.5t-222 533.5z"/>
<glyph glyph-name="ordfeminine" horiz-adv-x="748" unicode="ª" d="M555 1030q0 75 -52.5 127.5t-125.5 52.5q-74 0 -128 -52t-54 -122q0 -76 52.5 -130t127.5 -54q73 0 126.5 53t53.5 125zM541 766v104h-4q-86 -118 -203 -118q-107 0 -181.5 82.5t-74.5 201.5q0 115 76 197t180 82q119 0 201 -121h4v106h110v-534h-108z"/>
<glyph glyph-name="guillemotleft" horiz-adv-x="1024" unicode="«" d="M760 1024h188l-196 -471l190 -473h-184l-191 473zM276 1026h185l-195 -471l191 -473h-183l-190 469z"/>
<glyph glyph-name="logicalnot" horiz-adv-x="1366" unicode="¬" d="M139 975h1088v-619h-131v488h-957v131z"/>
<glyph glyph-name="uni00AD" horiz-adv-x="682" unicode="­" d="M109 498h464v-170h-464v170z"/>
<glyph glyph-name="registered" horiz-adv-x="1511" unicode="®" d="M555 776h160q102 0 149 29.5t47 93.5q0 68 -46.5 94.5t-159.5 26.5h-150v-244zM424 319v811h278q133 0 194.5 -16.5t108 -72.5t46.5 -123q0 -96 -62.5 -161t-169.5 -73v-4q76 -22 189 -203l98 -158h-160l-72 127q-69 123 -113 170.5t-128 47.5h-78v-345h-131zM1384 737 q0 259 -185 444t-443 185q-260 0 -445.5 -185t-185.5 -444q0 -260 185.5 -445.5t445.5 -185.5q258 0 443 186t185 445zM0 737q0 311 222 532.5t534 221.5q310 0 531.5 -221.5t221.5 -532.5t-221.5 -533t-531.5 -222q-312 0 -534 221.5t-222 533.5z"/>
<glyph glyph-name="uni00AF" horiz-adv-x="1024" unicode="¯" d="M-14 1425v103h1052v-103h-1052z"/>
<glyph glyph-name="degree" horiz-adv-x="819" unicode="°" d="M410 1382q-70 0 -119 -49t-49 -119t49.5 -120t118.5 -50q70 0 119 50t49 120t-49.5 119t-118.5 49zM410 936q-115 0 -196 82t-81 196t81 195.5t196 81.5q114 0 195 -81t81 -196q0 -114 -81 -196t-195 -82z"/>
<glyph glyph-name="plusminus" horiz-adv-x="1366" unicode="±" d="M139 86h1088v-131h-1088v131zM139 895h477v479h132v-479h479v-131h-479v-477h-132v477h-477v131z"/>
<glyph glyph-name="twosuperior" horiz-adv-x="788" unicode="²" d="M367 612h315v-123h-600l416 435q67 70 67 149q0 58 -46.5 93.5t-123.5 35.5q-85 0 -122.5 -29.5t-47.5 -97.5h-123q15 252 291 252q132 0 214.5 -74t82.5 -190q0 -119 -84 -205z"/>
<glyph glyph-name="threesuperior" horiz-adv-x="788" unicode="³" d="M254 1122h-133v6q0 87 73 144t187 57q128 0 204.5 -58.5t76.5 -156.5q0 -65 -32 -105t-102 -79q80 -43 115 -88t35 -127q0 -107 -80 -174.5t-209 -67.5q-120 0 -198 55t-89 170h131q12 -112 158 -112q70 0 113 37t43 96q0 145 -185 149v117q166 4 166 129q0 46 -37 74.5 t-100 28.5q-118 0 -137 -95z"/>
<glyph glyph-name="acute" horiz-adv-x="682" unicode="´" d="M223 977l133 278h236l-221 -278h-148z"/>
<glyph glyph-name="uni00B5" horiz-adv-x="1139" unicode="µ" d="M997 1061v-1061h-159v125h-4q-49 -79 -108 -114.5t-159 -35.5q-86 0 -140 31t-105 100h-5v-514h-178v1469h178v-516q0 -166 23 -240t83.5 -121t135.5 -47q85 0 150 46.5t88.5 119.5t23.5 238v520h176z"/>
<glyph glyph-name="paragraph" horiz-adv-x="1102" unicode="¶" d="M401 -408v1045q-192 12 -298.5 124t-106.5 290q0 101 39 185.5t106.5 136.5t142 72.5t185.5 20.5h633v-174h-144v-1700h-170v1700h-223v-1700h-164z"/>
<glyph glyph-name="cedilla" horiz-adv-x="682" unicode="¸" d="M215 -154l53 177h133l-32 -107q81 -10 125.5 -50t44.5 -97q0 -86 -80.5 -138.5t-216.5 -52.5q-59 0 -136 12l11 117h22l56 -4q178 0 178 76q0 67 -142 67h-16z"/>
<glyph glyph-name="onesuperior" horiz-adv-x="788" unicode="¹" d="M223 1307h236v-818h-123v695h-158z"/>
<glyph glyph-name="ordmasculine" horiz-adv-x="662" unicode="º" d="M510 1034q0 70 -52.5 120t-125.5 50q-72 0 -125 -52t-53 -122q0 -66 55 -118t125 -52q71 0 123.5 52t52.5 122zM43 1034q0 110 87.5 195.5t199.5 85.5q116 0 203.5 -84.5t87.5 -196.5q0 -114 -86 -199t-199 -85q-118 0 -205.5 85t-87.5 199z"/>
<glyph glyph-name="guillemotright" horiz-adv-x="1024" unicode="»" d="M565 1026h183l194 -469l-194 -475h-185l193 469zM78 1026h186l193 -473l-193 -471h-186l194 473z"/>
<glyph glyph-name="onequarter" horiz-adv-x="1855" unicode="¼" d="M195 1306h236v-818h-123v695h-158zM1278 1315h131l-893 -1405h-133zM1516 478l-235 -280h235v280zM1631 781v-583h78v-111h-78v-150h-113v150h-467z"/>
<glyph glyph-name="onehalf" horiz-adv-x="1855" unicode="½" d="M188 1306h236v-818h-123v695h-158zM1226 1315h131l-893 -1405h-133zM1390 60h315v-123h-600l416 435q67 70 67 149q0 58 -46.5 93.5t-123.5 35.5q-85 0 -122.5 -29.5t-47.5 -97.5h-123q15 252 291 252q132 0 214.5 -74t82.5 -190q0 -119 -84 -205z"/>
<glyph glyph-name="threequarters" horiz-adv-x="1855" unicode="¾" d="M263 1121h-133v6q0 87 73 144t187 57q128 0 204.5 -58.5t76.5 -156.5q0 -65 -32 -105t-102 -79q80 -43 115 -88t35 -127q0 -107 -80 -174.5t-209 -67.5q-120 0 -198 55t-89 170h131q12 -112 158 -112q70 0 113 37t43 96q0 145 -185 149v117q166 4 166 129q0 46 -37 74.5 t-100 28.5q-118 0 -137 -95zM1361 1315h131l-893 -1405h-133zM1552 478l-235 -280h235v280zM1667 781v-583h78v-111h-78v-150h-113v150h-467z"/>
<glyph glyph-name="questiondown" horiz-adv-x="788" unicode="¿" d="M563 154h166q-12 -178 -103.5 -271.5t-230.5 -93.5q-138 0 -235 87t-97 212q0 113 69 193t188.5 134t157.5 86t38 68q0 34 -27.5 55t-70.5 21q-62 0 -95 -31t-57 -100h-166q25 151 112.5 224t203.5 73q114 0 187 -66.5t73 -171.5q0 -97 -57.5 -162.5t-178 -120 t-164 -96.5t-43.5 -102q0 -56 46 -96.5t110 -40.5q157 0 174 199zM272 1018q0 45 32 76.5t77 31.5q44 0 76 -32t32 -76t-32 -76.5t-76 -32.5q-45 0 -77 32t-32 77z"/>
<glyph glyph-name="Agrave" horiz-adv-x="1237" unicode="À" d="M608 924l-205 -453h410zM608 1323l602 -1323h-182l-149 326h-541l-145 -326h-181zM744 1401h-146l-231 278h242z"/>
<glyph glyph-name="Aacute" horiz-adv-x="1237" unicode="Á" d="M608 924l-205 -453h410zM608 1323l602 -1323h-182l-149 326h-541l-145 -326h-181zM502 1401l133 278h236l-221 -278h-148z"/>
<glyph glyph-name="Acircumflex" horiz-adv-x="1237" unicode="Â" d="M608 924l-205 -453h410zM608 1323l602 -1323h-182l-149 326h-541l-145 -326h-181zM622 1571l-115 -170h-204l217 278h190l225 -278h-204z"/>
<glyph glyph-name="Atilde" horiz-adv-x="1237" unicode="Ã" d="M608 924l-205 -453h410zM608 1323l602 -1323h-182l-149 326h-541l-145 -326h-181zM418 1425h-133v13q0 93 58 154t147 61q46 0 138 -42t124 -42q35 0 50.5 20.5t21.5 65.5h131q-4 -110 -55.5 -168.5t-139.5 -58.5q-67 0 -149 47q-81 45 -117 45q-34 0 -55 -24t-21 -62v-9 z"/>
<glyph glyph-name="Adieresis" horiz-adv-x="1237" unicode="Ä" d="M608 924l-205 -453h410zM608 1323l602 -1323h-182l-149 326h-541l-145 -326h-181zM716 1522q0 43 31 73.5t74 30.5q44 0 75 -30.5t31 -73.5q0 -45 -31 -76t-75 -31q-43 0 -74 31.5t-31 75.5zM311 1522q0 43 31 73.5t75 30.5q43 0 74 -30.5t31 -73.5q0 -44 -31 -75.5 t-74 -31.5q-44 0 -75 31t-31 76z"/>
<glyph glyph-name="Aring" horiz-adv-x="1237" unicode="Å" d="M608 924l-205 -453h410zM608 1323l602 -1323h-182l-149 326h-541l-145 -326h-181zM622 1649q-43 0 -74.5 -31.5t-31.5 -75.5q0 -46 31 -78t75 -32q43 0 75 32t32 76q0 46 -31 77.5t-76 31.5zM620 1356q-75 0 -127.5 55t-52.5 133q0 72 53.5 125t126.5 53 q75 0 127.5 -53.5t52.5 -128.5q0 -76 -52.5 -130t-127.5 -54z"/>
<glyph glyph-name="AE" horiz-adv-x="1579" unicode="Æ" d="M823 1100l-307 -559h311v559h-4zM735 1274h787v-172h-523v-320h523v-172h-523v-438h521v-172h-693v397h-391l-221 -397h-192z"/>
<glyph glyph-name="Ccedilla" horiz-adv-x="1237" unicode="Ç" d="M494 -154l47 154q-217 77 -343 253t-126 388q0 278 206.5 476t497.5 198q187 0 387 -84v-197q-206 101 -379 101q-222 0 -374 -143.5t-152 -352.5q0 -213 155.5 -355.5t389.5 -142.5q170 0 360 107v-199q-173 -92 -375 -92q-57 0 -124 10l-17 -51q81 -10 125.5 -50 t44.5 -97q0 -86 -80.5 -138.5t-216.5 -52.5q-58 0 -135 12l10 117h23l55 -4q178 0 178 76q0 67 -141 67h-16z"/>
<glyph glyph-name="Egrave" horiz-adv-x="897" unicode="È" d="M119 1274h706v-174h-534v-318h534v-172h-534v-438h534v-172h-706v1274zM574 1401h-146l-231 278h242z"/>
<glyph glyph-name="Eacute" horiz-adv-x="897" unicode="É" d="M119 1274h706v-174h-534v-318h534v-172h-534v-438h534v-172h-706v1274zM332 1401l133 278h236l-221 -278h-148z"/>
<glyph glyph-name="Ecircumflex" horiz-adv-x="897" unicode="Ê" d="M119 1274h706v-174h-534v-318h534v-172h-534v-438h534v-172h-706v1274zM452 1571l-115 -170h-204l217 278h190l225 -278h-204z"/>
<glyph glyph-name="Edieresis" horiz-adv-x="897" unicode="Ë" d="M119 1274h706v-174h-534v-318h534v-172h-534v-438h534v-172h-706v1274zM546 1522q0 43 31 73.5t74 30.5q44 0 75 -30.5t31 -73.5q0 -45 -31 -76t-75 -31q-43 0 -74 31.5t-31 75.5zM141 1522q0 43 31 73.5t75 30.5q43 0 74 -30.5t31 -73.5q0 -44 -31 -75.5t-74 -31.5 q-44 0 -75 31t-31 76z"/>
<glyph glyph-name="Igrave" horiz-adv-x="449" unicode="Ì" d="M131 1274h172v-1274h-172v1274zM348 1401h-146l-231 278h242z"/>
<glyph glyph-name="Iacute" horiz-adv-x="449" unicode="Í" d="M131 1274h172v-1274h-172v1274zM106 1401l133 278h236l-221 -278h-148z"/>
<glyph glyph-name="Icircumflex" horiz-adv-x="449" unicode="Î" d="M131 1274h172v-1274h-172v1274zM227 1571l-115 -170h-204l217 278h190l225 -278h-204z"/>
<glyph glyph-name="Idieresis" horiz-adv-x="449" unicode="Ï" d="M131 1274h172v-1274h-172v1274zM321 1522q0 43 31 73.5t74 30.5q44 0 75 -30.5t31 -73.5q0 -45 -31 -76t-75 -31q-43 0 -74 31.5t-31 75.5zM-84 1522q0 43 31 73.5t75 30.5q43 0 74 -30.5t31 -73.5q0 -44 -31 -75.5t-74 -31.5q-44 0 -75 31t-31 76z"/>
<glyph glyph-name="Eth" horiz-adv-x="1237" unicode="Ð" d="M324 1102v-391h325v-152h-325v-389h102q269 0 423.5 124.5t154.5 338.5q0 205 -144 337t-368 132h-168zM158 1272h309q365 0 541 -198t176 -439q0 -255 -187 -445t-522 -190h-317v557h-131v152h131v563z"/>
<glyph glyph-name="Ntilde" horiz-adv-x="1366" unicode="Ñ" d="M123 1325l942 -969v918h174v-1333l-942 964v-905h-174v1325zM481 1425h-133v13q0 93 58 154t147 61q46 0 138 -42t124 -42q35 0 50.5 20.5t21.5 65.5h131q-4 -110 -55.5 -168.5t-139.5 -58.5q-67 0 -149 47q-81 45 -117 45q-34 0 -55 -24t-21 -62v-9z"/>
<glyph glyph-name="Ograve" horiz-adv-x="1579" unicode="Ò" d="M1300 637q0 211 -152 355.5t-374 144.5q-211 0 -361.5 -147t-150.5 -353q0 -209 154.5 -353.5t378.5 -144.5q206 0 355.5 147.5t149.5 350.5zM80 645q0 276 208 473t500 197q285 0 491 -198.5t206 -471.5q0 -289 -203.5 -488.5t-499.5 -199.5q-292 0 -497 201t-205 487z M914 1401h-146l-231 278h242z"/>
<glyph glyph-name="Oacute" horiz-adv-x="1579" unicode="Ó" d="M1300 637q0 211 -152 355.5t-374 144.5q-211 0 -361.5 -147t-150.5 -353q0 -209 154.5 -353.5t378.5 -144.5q206 0 355.5 147.5t149.5 350.5zM80 645q0 276 208 473t500 197q285 0 491 -198.5t206 -471.5q0 -289 -203.5 -488.5t-499.5 -199.5q-292 0 -497 201t-205 487z M672 1401l133 278h236l-221 -278h-148z"/>
<glyph glyph-name="Ocircumflex" horiz-adv-x="1579" unicode="Ô" d="M1300 637q0 211 -152 355.5t-374 144.5q-211 0 -361.5 -147t-150.5 -353q0 -209 154.5 -353.5t378.5 -144.5q206 0 355.5 147.5t149.5 350.5zM80 645q0 276 208 473t500 197q285 0 491 -198.5t206 -471.5q0 -289 -203.5 -488.5t-499.5 -199.5q-292 0 -497 201t-205 487z M792 1571l-115 -170h-204l217 278h190l225 -278h-204z"/>
<glyph glyph-name="Otilde" horiz-adv-x="1579" unicode="Õ" d="M1300 637q0 211 -152 355.5t-374 144.5q-211 0 -361.5 -147t-150.5 -353q0 -209 154.5 -353.5t378.5 -144.5q206 0 355.5 147.5t149.5 350.5zM80 645q0 276 208 473t500 197q285 0 491 -198.5t206 -471.5q0 -289 -203.5 -488.5t-499.5 -199.5q-292 0 -497 201t-205 487z M588 1425h-133v13q0 93 58 154t147 61q46 0 138 -42t124 -42q35 0 50.5 20.5t21.5 65.5h131q-4 -110 -55.5 -168.5t-139.5 -58.5q-67 0 -149 47q-81 45 -117 45q-34 0 -55 -24t-21 -62v-9z"/>
<glyph glyph-name="Odieresis" horiz-adv-x="1579" unicode="Ö" d="M1300 637q0 211 -152 355.5t-374 144.5q-211 0 -361.5 -147t-150.5 -353q0 -209 154.5 -353.5t378.5 -144.5q206 0 355.5 147.5t149.5 350.5zM80 645q0 276 208 473t500 197q285 0 491 -198.5t206 -471.5q0 -289 -203.5 -488.5t-499.5 -199.5q-292 0 -497 201t-205 487z M886 1522q0 43 31 73.5t74 30.5q44 0 75 -30.5t31 -73.5q0 -45 -31 -76t-75 -31q-43 0 -74 31.5t-31 75.5zM481 1522q0 43 31 73.5t75 30.5q43 0 74 -30.5t31 -73.5q0 -44 -31 -75.5t-74 -31.5q-44 0 -75 31t-31 76z"/>
<glyph glyph-name="multiply" horiz-adv-x="1366" unicode="×" d="M184 1071l92 92l408 -409l410 409l92 -94l-408 -407l404 -406l-92 -92l-406 405l-405 -405l-93 92l406 406z"/>
<glyph glyph-name="Oslash" horiz-adv-x="1579" unicode="Ø" d="M1192 973l-670 -768q122 -64 248 -64q227 0 382 150.5t155 370.5q0 94 -27 158t-88 153zM408 299l663 770q-125 66 -254 66q-220 0 -376 -148.5t-156 -357.5q0 -116 29.5 -181t93.5 -149zM1374 1421l115 -102l-176 -205q100 -117 138 -223.5t38 -231.5 q0 -295 -207 -497.5t-508 -202.5q-118 0 -197.5 24t-175.5 78l-190 -217l-109 103l183 211q-96 99 -139.5 219.5t-43.5 240.5q0 294 209.5 497.5t513.5 203.5q110 0 191.5 -25t181.5 -80z"/>
<glyph glyph-name="Ugrave" horiz-adv-x="1237" unicode="Ù" d="M127 1272h174v-783q0 -174 83.5 -269t236.5 -95q152 0 236.5 87.5t84.5 246.5v813h174v-801q0 -234 -133.5 -374t-355.5 -140q-227 0 -363.5 142t-136.5 419v754zM744 1401h-146l-231 278h242z"/>
<glyph glyph-name="Uacute" horiz-adv-x="1237" unicode="Ú" d="M127 1272h174v-783q0 -174 83.5 -269t236.5 -95q152 0 236.5 87.5t84.5 246.5v813h174v-801q0 -234 -133.5 -374t-355.5 -140q-227 0 -363.5 142t-136.5 419v754zM502 1401l133 278h236l-221 -278h-148z"/>
<glyph glyph-name="Ucircumflex" horiz-adv-x="1237" unicode="Û" d="M127 1272h174v-783q0 -174 83.5 -269t236.5 -95q152 0 236.5 87.5t84.5 246.5v813h174v-801q0 -234 -133.5 -374t-355.5 -140q-227 0 -363.5 142t-136.5 419v754zM622 1571l-115 -170h-204l217 278h190l225 -278h-204z"/>
<glyph glyph-name="Udieresis" horiz-adv-x="1237" unicode="Ü" d="M127 1272h174v-783q0 -174 83.5 -269t236.5 -95q152 0 236.5 87.5t84.5 246.5v813h174v-801q0 -234 -133.5 -374t-355.5 -140q-227 0 -363.5 142t-136.5 419v754zM716 1522q0 43 31 73.5t74 30.5q44 0 75 -30.5t31 -73.5q0 -45 -31 -76t-75 -31q-43 0 -74 31.5t-31 75.5z M311 1522q0 43 31 73.5t75 30.5q43 0 74 -30.5t31 -73.5q0 -44 -31 -75.5t-74 -31.5q-44 0 -75 31t-31 76z"/>
<glyph glyph-name="Yacute" d="M57 1274h193l313 -512l309 512h193l-418 -690v-584h-174v582zM449 1401l133 278h236l-221 -278h-148z" unicode="Ý"/>
<glyph glyph-name="Thorn" horiz-adv-x="1024" unicode="Þ" d="M362 860v-446q214 4 298.5 61t84.5 170q0 104 -82 159.5t-237 55.5h-64zM362 1274v-260h68q226 0 362 -101t136 -266q0 -167 -144 -276t-370 -109h-52v-262h-169v1274h169z"/>
<glyph glyph-name="germandbls" d="M158 2v848q0 211 114 338t303 127q182 0 297 -98t115 -250q0 -213 -274 -291v-4q315 -56 315 -359q0 -158 -97 -245.5t-274 -87.5q-111 0 -206 53v151q92 -53 192 -53q96 0 156.5 64.5t60.5 166.5q0 95 -76.5 166.5t-177.5 71.5h-86v148h96q86 0 145.5 57t59.5 139 q0 88 -67.5 147.5t-167.5 59.5q-107 0 -181.5 -73.5t-74.5 -188.5v-887h-172z" unicode="ß"/>
<glyph glyph-name="agrave" d="M834 410q0 113 -81 193.5t-194 80.5q-110 0 -192 -80t-82 -188q0 -117 80 -199t194 -82q113 0 194 81.5t81 193.5zM811 825h174v-825h-174v164q-127 -187 -315 -187q-163 0 -278.5 128t-115.5 311q0 173 116.5 302.5t273.5 129.5q97 0 184 -53t135 -138v168zM690 977 h-146l-231 278h242z" unicode="à"/>
<glyph glyph-name="aacute" d="M834 410q0 113 -81 193.5t-194 80.5q-110 0 -192 -80t-82 -188q0 -117 80 -199t194 -82q113 0 194 81.5t81 193.5zM811 825h174v-825h-174v164q-127 -187 -315 -187q-163 0 -278.5 128t-115.5 311q0 173 116.5 302.5t273.5 129.5q97 0 184 -53t135 -138v168zM449 977 l133 278h236l-221 -278h-148z" unicode="á"/>
<glyph glyph-name="acircumflex" d="M834 410q0 113 -81 193.5t-194 80.5q-110 0 -192 -80t-82 -188q0 -117 80 -199t194 -82q113 0 194 81.5t81 193.5zM811 825h174v-825h-174v164q-127 -187 -315 -187q-163 0 -278.5 128t-115.5 311q0 173 116.5 302.5t273.5 129.5q97 0 184 -53t135 -138v168zM569 1147 l-115 -170h-204l217 278h190l225 -278h-204z" unicode="â"/>
<glyph glyph-name="atilde" d="M834 410q0 113 -81 193.5t-194 80.5q-110 0 -192 -80t-82 -188q0 -117 80 -199t194 -82q113 0 194 81.5t81 193.5zM811 825h174v-825h-174v164q-127 -187 -315 -187q-163 0 -278.5 128t-115.5 311q0 173 116.5 302.5t273.5 129.5q97 0 184 -53t135 -138v168zM364 1001 h-133v13q0 93 58 154t147 61q46 0 138 -42t124 -42q35 0 50.5 20.5t21.5 65.5h131q-4 -110 -55.5 -168.5t-139.5 -58.5q-67 0 -149 47q-81 45 -117 45q-34 0 -55 -24t-21 -62v-9z" unicode="ã"/>
<glyph glyph-name="adieresis" d="M834 410q0 113 -81 193.5t-194 80.5q-110 0 -192 -80t-82 -188q0 -117 80 -199t194 -82q113 0 194 81.5t81 193.5zM811 825h174v-825h-174v164q-127 -187 -315 -187q-163 0 -278.5 128t-115.5 311q0 173 116.5 302.5t273.5 129.5q97 0 184 -53t135 -138v168zM663 1098 q0 43 31 73.5t74 30.5q44 0 75 -30.5t31 -73.5q0 -45 -31 -76t-75 -31q-43 0 -74 31.5t-31 75.5zM258 1098q0 43 31 73.5t75 30.5q43 0 74 -30.5t31 -73.5q0 -44 -31 -75.5t-74 -31.5q-44 0 -75 31t-31 76z" unicode="ä"/>
<glyph glyph-name="aring" d="M834 410q0 113 -81 193.5t-194 80.5q-110 0 -192 -80t-82 -188q0 -117 80 -199t194 -82q113 0 194 81.5t81 193.5zM811 825h174v-825h-174v164q-127 -187 -315 -187q-163 0 -278.5 128t-115.5 311q0 173 116.5 302.5t273.5 129.5q97 0 184 -53t135 -138v168zM569 1225 q-43 0 -74.5 -31.5t-31.5 -75.5q0 -46 31 -78t75 -32q43 0 75 32t32 76q0 46 -31 77.5t-76 31.5zM567 932q-75 0 -127.5 55t-52.5 133q0 72 53.5 125t126.5 53q75 0 127.5 -53.5t52.5 -128.5q0 -76 -52.5 -130t-127.5 -54z" unicode="å"/>
<glyph glyph-name="ae" horiz-adv-x="1686" unicode="æ" d="M776 410q0 113 -77 193.5t-185 80.5q-116 0 -198.5 -80.5t-82.5 -193.5q0 -110 82.5 -191.5t192.5 -81.5t189 80.5t79 192.5zM950 520h486q-79 168 -244 168q-164 0 -242 -168zM756 678v147h170v-67q67 46 119.5 68t144.5 22q174 0 301 -131t127 -311v-31h-688 q24 -113 97.5 -174.5t176.5 -61.5q142 0 242 119l127 -92q-130 -186 -381 -186q-134 0 -264 88v-66h-170v154h-4q-130 -179 -322 -179q-151 0 -266 132t-115 307q0 176 115 304t270 128q185 0 316 -170h4z"/>
<glyph glyph-name="ccedilla" horiz-adv-x="788" unicode="ç" d="M268 -154l49 164q-122 54 -195 162.5t-73 230.5q0 192 128 318.5t321 126.5q115 0 237 -60v-194q-131 84 -248 84q-108 0 -189 -76t-81 -178q0 -115 76 -193.5t186 -78.5q112 0 256 100v-199q-133 -76 -258 -76q-25 0 -37 3l-18 -64q81 -10 125.5 -50t44.5 -97 q0 -86 -80.5 -138.5t-216.5 -52.5q-59 0 -135 12l10 117h23l55 -4q178 0 178 76q0 67 -141 67h-17z"/>
<glyph glyph-name="egrave" horiz-adv-x="1024" unicode="è" d="M254 518h504q-84 170 -248 170q-179 0 -256 -170zM940 379h-704q23 -127 104.5 -185.5t177.5 -58.5q148 0 248 123l127 -96q-143 -185 -383 -185q-184 0 -308 126t-124 313q0 175 125.5 303.5t306.5 128.5q178 0 305 -130q125 -128 125 -333v-6zM637 977h-146l-231 278 h242z"/>
<glyph glyph-name="eacute" horiz-adv-x="1024" unicode="é" d="M254 518h504q-84 170 -248 170q-179 0 -256 -170zM940 379h-704q23 -127 104.5 -185.5t177.5 -58.5q148 0 248 123l127 -96q-143 -185 -383 -185q-184 0 -308 126t-124 313q0 175 125.5 303.5t306.5 128.5q178 0 305 -130q125 -128 125 -333v-6zM395 977l133 278h236 l-221 -278h-148z"/>
<glyph glyph-name="ecircumflex" horiz-adv-x="1024" unicode="ê" d="M254 518h504q-84 170 -248 170q-179 0 -256 -170zM940 379h-704q23 -127 104.5 -185.5t177.5 -58.5q148 0 248 123l127 -96q-143 -185 -383 -185q-184 0 -308 126t-124 313q0 175 125.5 303.5t306.5 128.5q178 0 305 -130q125 -128 125 -333v-6zM516 1147l-115 -170h-204 l217 278h190l225 -278h-204z"/>
<glyph glyph-name="edieresis" horiz-adv-x="1024" unicode="ë" d="M254 518h504q-84 170 -248 170q-179 0 -256 -170zM940 379h-704q23 -127 104.5 -185.5t177.5 -58.5q148 0 248 123l127 -96q-143 -185 -383 -185q-184 0 -308 126t-124 313q0 175 125.5 303.5t306.5 128.5q178 0 305 -130q125 -128 125 -333v-6zM610 1098q0 43 31 73.5 t74 30.5q44 0 75 -30.5t31 -73.5q0 -45 -31 -76t-75 -31q-43 0 -74 31.5t-31 75.5zM205 1098q0 43 31 73.5t75 30.5q43 0 74 -30.5t31 -73.5q0 -44 -31 -75.5t-74 -31.5q-44 0 -75 31t-31 76z"/>
<glyph glyph-name="igrave" horiz-adv-x="449" unicode="ì" d="M133 825h172v-825h-172v825zM348 977h-146l-231 278h242z"/>
<glyph glyph-name="iacute" horiz-adv-x="449" unicode="í" d="M133 825h172v-825h-172v825zM106 977l133 278h236l-221 -278h-148z"/>
<glyph glyph-name="icircumflex" horiz-adv-x="449" unicode="î" d="M133 825h172v-825h-172v825zM227 1147l-115 -170h-204l217 278h190l225 -278h-204z"/>
<glyph glyph-name="idieresis" horiz-adv-x="449" unicode="ï" d="M133 825h172v-825h-172v825zM321 1098q0 43 31 73.5t74 30.5q44 0 75 -30.5t31 -73.5q0 -45 -31 -76t-75 -31q-43 0 -74 31.5t-31 75.5zM-84 1098q0 43 31 73.5t75 30.5q43 0 74 -30.5t31 -73.5q0 -44 -31 -75.5t-74 -31.5q-44 0 -75 31t-31 76z"/>
<glyph glyph-name="eth" horiz-adv-x="1024" unicode="ð" d="M801 420q0 104 -78.5 180t-185.5 76q-110 0 -190.5 -79.5t-80.5 -186.5q0 -101 80 -178.5t184 -77.5q114 0 192.5 77t78.5 189zM283 1214l82 115q93 -26 204 -92l189 90l55 -115l-127 -65q295 -252 295 -651q0 -227 -126 -373t-320 -146q-178 0 -309.5 132t-131.5 309 q0 168 133 298t305 130q79 0 126.5 -20t95.5 -64l4 4q-44 181 -213 311l-281 -139l-59 117l213 104z"/>
<glyph glyph-name="ntilde" horiz-adv-x="897" unicode="ñ" d="M84 0v825h170v-137q75 83 136 121.5t136 38.5q112 0 191.5 -74t79.5 -178v-596h-174v545q0 67 -43.5 111t-110.5 44q-87 0 -150 -73.5t-63 -177.5v-449h-172zM248 1001h-133v13q0 93 58 154t147 61q46 0 138 -42t124 -42q35 0 50.5 20.5t21.5 65.5h131 q-4 -110 -55.5 -168.5t-139.5 -58.5q-67 0 -149 47q-81 45 -117 45q-34 0 -55 -24t-21 -62v-9z"/>
<glyph glyph-name="ograve" horiz-adv-x="1024" unicode="ò" d="M786 416q0 105 -80 182.5t-190 77.5q-113 0 -194.5 -78.5t-81.5 -187.5q0 -104 82.5 -182t193.5 -78q108 0 189 80t81 186zM70 416q0 169 133.5 300.5t306.5 131.5q178 0 311 -129.5t133 -302.5q0 -174 -130.5 -306.5t-301.5 -132.5q-183 0 -317.5 131t-134.5 308z M637 977h-146l-231 278h242z"/>
<glyph glyph-name="oacute" horiz-adv-x="1024" unicode="ó" d="M786 416q0 105 -80 182.5t-190 77.5q-113 0 -194.5 -78.5t-81.5 -187.5q0 -104 82.5 -182t193.5 -78q108 0 189 80t81 186zM70 416q0 169 133.5 300.5t306.5 131.5q178 0 311 -129.5t133 -302.5q0 -174 -130.5 -306.5t-301.5 -132.5q-183 0 -317.5 131t-134.5 308z M395 977l133 278h236l-221 -278h-148z"/>
<glyph glyph-name="ocircumflex" horiz-adv-x="1024" unicode="ô" d="M786 416q0 105 -80 182.5t-190 77.5q-113 0 -194.5 -78.5t-81.5 -187.5q0 -104 82.5 -182t193.5 -78q108 0 189 80t81 186zM70 416q0 169 133.5 300.5t306.5 131.5q178 0 311 -129.5t133 -302.5q0 -174 -130.5 -306.5t-301.5 -132.5q-183 0 -317.5 131t-134.5 308z M516 1147l-115 -170h-204l217 278h190l225 -278h-204z"/>
<glyph glyph-name="otilde" horiz-adv-x="1024" unicode="õ" d="M786 416q0 105 -80 182.5t-190 77.5q-113 0 -194.5 -78.5t-81.5 -187.5q0 -104 82.5 -182t193.5 -78q108 0 189 80t81 186zM70 416q0 169 133.5 300.5t306.5 131.5q178 0 311 -129.5t133 -302.5q0 -174 -130.5 -306.5t-301.5 -132.5q-183 0 -317.5 131t-134.5 308z M311 1001h-133v13q0 93 58 154t147 61q46 0 138 -42t124 -42q35 0 50.5 20.5t21.5 65.5h131q-4 -110 -55.5 -168.5t-139.5 -58.5q-67 0 -149 47q-81 45 -117 45q-34 0 -55 -24t-21 -62v-9z"/>
<glyph glyph-name="odieresis" horiz-adv-x="1024" unicode="ö" d="M786 416q0 105 -80 182.5t-190 77.5q-113 0 -194.5 -78.5t-81.5 -187.5q0 -104 82.5 -182t193.5 -78q108 0 189 80t81 186zM70 416q0 169 133.5 300.5t306.5 131.5q178 0 311 -129.5t133 -302.5q0 -174 -130.5 -306.5t-301.5 -132.5q-183 0 -317.5 131t-134.5 308z M610 1098q0 43 31 73.5t74 30.5q44 0 75 -30.5t31 -73.5q0 -45 -31 -76t-75 -31q-43 0 -74 31.5t-31 75.5zM205 1098q0 43 31 73.5t75 30.5q43 0 74 -30.5t31 -73.5q0 -44 -31 -75.5t-74 -31.5q-44 0 -75 31t-31 76z"/>
<glyph glyph-name="divide" horiz-adv-x="1366" unicode="÷" d="M682 168q-35 0 -60.5 25t-25.5 59q0 35 25.5 60.5t60.5 25.5t59.5 -25t24.5 -59q0 -36 -24.5 -61t-59.5 -25zM139 725h1090v-127h-1090v127zM596 1080v3q0 33 25.5 56.5t60.5 23.5q33 0 57.5 -25t24.5 -59q0 -35 -24 -60.5t-58 -25.5q-35 0 -60.5 26t-25.5 61z"/>
<glyph glyph-name="oslash" horiz-adv-x="1024" unicode="ø" d="M735 569l-338 -385q63 -28 115 -28q112 0 193 79t81 189q0 69 -51 145zM297 266l336 387q-68 25 -115 25q-112 0 -192 -78.5t-80 -187.5q0 -66 51 -146zM858 913l98 -84l-110 -129q112 -138 112 -270q0 -183 -130 -314.5t-312 -131.5q-121 0 -233 67l-113 -129l-98 86 l110 129q-57 71 -82.5 133t-25.5 152q0 169 133 298.5t309 129.5q114 0 232 -66z"/>
<glyph glyph-name="ugrave" horiz-adv-x="897" unicode="ù" d="M86 825h174v-465q0 -215 189 -215q84 0 133 57.5t49 157.5v465h172v-493q0 -155 -101 -255t-258 -100q-160 0 -259 100t-99 261v487zM574 977h-146l-231 278h242z"/>
<glyph glyph-name="uacute" horiz-adv-x="897" unicode="ú" d="M86 825h174v-465q0 -215 189 -215q84 0 133 57.5t49 157.5v465h172v-493q0 -155 -101 -255t-258 -100q-160 0 -259 100t-99 261v487zM332 977l133 278h236l-221 -278h-148z"/>
<glyph glyph-name="ucircumflex" horiz-adv-x="897" unicode="û" d="M86 825h174v-465q0 -215 189 -215q84 0 133 57.5t49 157.5v465h172v-493q0 -155 -101 -255t-258 -100q-160 0 -259 100t-99 261v487zM452 1147l-115 -170h-204l217 278h190l225 -278h-204z"/>
<glyph glyph-name="udieresis" horiz-adv-x="897" unicode="ü" d="M86 825h174v-465q0 -215 189 -215q84 0 133 57.5t49 157.5v465h172v-493q0 -155 -101 -255t-258 -100q-160 0 -259 100t-99 261v487zM546 1098q0 43 31 73.5t74 30.5q44 0 75 -30.5t31 -73.5q0 -45 -31 -76t-75 -31q-43 0 -74 31.5t-31 75.5zM141 1098q0 43 31 73.5 t75 30.5q43 0 74 -30.5t31 -73.5q0 -44 -31 -75.5t-74 -31.5q-44 0 -75 31t-31 76z"/>
<glyph glyph-name="yacute" horiz-adv-x="1024" unicode="ý" d="M63 825h197l299 -448l207 448h180l-557 -1212h-182l272 590zM395 977l133 278h236l-221 -278h-148z"/>
<glyph glyph-name="thorn" d="M854 414q0 111 -82.5 192.5t-193.5 81.5q-114 0 -195.5 -80.5t-81.5 -193.5q0 -112 82.5 -193.5t194.5 -81.5t194 81.5t82 193.5zM328 1298v-641h4q38 85 127.5 138t183.5 53q162 0 277.5 -126.5t115.5 -303.5q0 -178 -115 -307t-272 -129q-100 0 -186 49t-131 135h-4 v-553h-168v1685h168z" unicode="þ"/>
<glyph glyph-name="dotlessi" horiz-adv-x="449" unicode="ı" d="M133 825h172v-825h-172v825z"/>
<glyph glyph-name="OE" horiz-adv-x="1579" unicode="Œ" d="M834 172v928h-72q-172 0 -274 -49.5t-172 -160.5t-70 -255q0 -107 47 -201.5t122 -156t146 -83.5t191 -22h82zM1507 1272v-172h-506v-318h504v-170h-504v-440h502v-172h-780q-286 0 -473 181t-187 458q0 261 183 447t440 186h821z"/>
<glyph glyph-name="oe" horiz-adv-x="1686" unicode="œ" d="M766 416q0 108 -75 185t-181 77q-116 0 -196.5 -77.5t-80.5 -190.5q0 -103 80.5 -178.5t190.5 -75.5q105 0 183.5 78t78.5 182zM948 524h492q-87 166 -242 166q-177 0 -250 -166zM1444 262l131 -96q-150 -184 -371 -184q-219 0 -350 176q-70 -93 -164 -135.5t-186 -42.5 q-177 0 -312 133t-135 309q0 172 137 300t322 128q198 0 334 -174q139 174 352 174q177 0 297.5 -135.5t120.5 -335.5h-686q54 -240 272 -240q148 0 238 123z"/>
<glyph glyph-name="Scaron" horiz-adv-x="1024" unicode="Š" d="M911 1133l-141 -113q-56 58 -101.5 86.5t-131.5 28.5q-94 0 -152.5 -42.5t-58.5 -109.5q0 -58 51 -102.5t174 -97t191.5 -98t112.5 -100.5t65.5 -116t21.5 -129q0 -159 -115.5 -271t-279.5 -112q-160 0 -282.5 87.5t-188.5 262.5l174 49q95 -215 291 -215q95 0 158 57 t63 144q0 52 -33 104.5t-82 86.5t-156.5 77.5t-165 80t-99.5 87t-61.5 100.5t-19.5 107q0 137 110 233.5t267 96.5q104 0 211 -45t178 -137zM530 1509l111 170h205l-225 -278h-193l-215 278h205z"/>
<glyph glyph-name="scaron" horiz-adv-x="682" unicode="š" d="M614 727l-116 -102q-45 32 -78 48.5t-78 16.5q-106 0 -106 -78q0 -56 134.5 -108.5t193.5 -115.5t59 -152q0 -104 -85 -181.5t-200 -77.5q-175 0 -287 162l137 66q72 -70 150 -70q54 0 94.5 29.5t40.5 68.5q0 69 -142 124t-196.5 111.5t-54.5 139.5q0 103 77.5 171.5 t194.5 68.5t262 -121zM358 1085l111 170h205l-225 -278h-193l-215 278h205z"/>
<glyph glyph-name="Ydieresis" d="M57 1274h193l313 -512l309 512h193l-418 -690v-584h-174v582zM663 1522q0 43 31 73.5t74 30.5q44 0 75 -30.5t31 -73.5q0 -45 -31 -76t-75 -31q-43 0 -74 31.5t-31 75.5zM258 1522q0 43 31 73.5t75 30.5q43 0 74 -30.5t31 -73.5q0 -44 -31 -75.5t-74 -31.5q-44 0 -75 31 t-31 76z" unicode="Ÿ"/>
<glyph glyph-name="circumflex" horiz-adv-x="682" unicode="ˆ" d="M344 1147l-115 -170h-204l217 278h190l225 -278h-204z"/>
<glyph glyph-name="caron" horiz-adv-x="682" unicode="ˇ" d="M358 1085l111 170h205l-225 -278h-193l-215 278h205z"/>
<glyph glyph-name="ring" horiz-adv-x="682" unicode="˚" d="M344 1225q-43 0 -74.5 -31.5t-31.5 -75.5q0 -46 31 -78t75 -32q43 0 75 32t32 76q0 46 -31 77.5t-76 31.5zM342 932q-75 0 -127.5 55t-52.5 133q0 72 53.5 125t126.5 53q75 0 127.5 -53.5t52.5 -128.5q0 -76 -52.5 -130t-127.5 -54z"/>
<glyph glyph-name="tilde" horiz-adv-x="682" unicode="˜" d="M139 1001h-133v13q0 93 58 154t147 61q46 0 138 -42t124 -42q35 0 50.5 20.5t21.5 65.5h131q-4 -110 -55.5 -168.5t-139.5 -58.5q-67 0 -149 47q-81 45 -117 45q-34 0 -55 -24t-21 -62v-9z"/>
<glyph glyph-name="pi" horiz-adv-x="1260" unicode="π" d="M1217 764h-226v-764h-182v764h-348v-764h-182v766q-129 0 -230 -51v147q111 58 240 58h928v-156z"/>
<glyph glyph-name="endash" horiz-adv-x="1024" unicode="–" d="M-10 604h1046v-182h-1046v182z"/>
<glyph glyph-name="emdash" horiz-adv-x="2048" unicode="—" d="M-12 604h2070v-182h-2070v182z"/>
<glyph glyph-name="quoteleft" horiz-adv-x="449" unicode="‘" d="M242 1313l82 -80q-90 -81 -99 -199h113v-227h-227v225q0 63 35 139.5t96 141.5z"/>
<glyph glyph-name="quotesinglbase" horiz-adv-x="449" unicode="‚" d="M203 252l215 -84l-236 -512l-155 61z"/>
<glyph glyph-name="quotedblleft" horiz-adv-x="788" unicode="“" d="M227 1309l78 -76q-89 -112 -96 -201h110v-229h-225v174q0 108 31.5 182.5t101.5 149.5zM614 1311l80 -78q-91 -95 -100 -203h108v-225h-223v213q0 152 135 293z"/>
<glyph glyph-name="quotedblright" horiz-adv-x="788" unicode="”" d="M94 1296h225v-204q0 -160 -137 -301l-80 79q94 84 103 199h-111v227zM479 1296h223v-223q0 -151 -131 -280l-79 75q93 95 100 201h-113v227z"/>
<glyph glyph-name="dagger" horiz-adv-x="897" unicode="†" d="M477 -379h-65q-2 295 -37 557q-17 124 -17 199q0 90 25.5 194.5t26.5 173.5h-4q-49 0 -123.5 -25.5t-116.5 -25.5q-37 0 -60.5 24t-23.5 60q0 84 94 84q36 0 99 -23.5t137 -23.5q-3 108 -28.5 230t-25.5 167q0 57 24.5 89t66.5 32q39 0 62.5 -33t23.5 -90 q0 -35 -28.5 -159t-31.5 -236q50 0 126.5 23.5t115.5 23.5q40 0 66 -23.5t26 -60.5q0 -35 -25.5 -58.5t-62.5 -23.5q-42 0 -112 24.5t-126 24.5h-4q0 -56 25.5 -165t25.5 -201q0 -68 -12 -150q-36 -268 -41 -608z"/>
<glyph glyph-name="daggerdbl" horiz-adv-x="897" unicode="‡" d="M471 973q76 0 160 31q55 18 80 18q38 0 66 -26t28 -62t-25 -58t-67 -22q-52 0 -116 25.5t-126 25.5q0 -59 28.5 -130t28.5 -105q0 -37 -27.5 -103t-27.5 -92q0 -31 26.5 -100t26.5 -109q0 -33 -26.5 -101.5t-26.5 -117.5q63 0 135 24.5t107 24.5q39 0 63.5 -22.5 t24.5 -59.5q0 -38 -24.5 -62t-63.5 -24q-41 0 -109.5 24.5t-134.5 24.5q0 -73 31 -159q24 -74 24 -111q0 -88 -86 -88q-39 0 -63.5 24t-24.5 62q0 41 28 124t28 151q-62 0 -139 -26t-105 -26q-38 0 -65 24.5t-27 57.5q0 40 25 63t67 23q41 0 113.5 -24.5t128.5 -24.5 q0 53 -27 121t-27 111q0 38 27 96t27 102q0 34 -28 94.5t-28 104.5q0 35 26.5 102t29.5 127h-4q-48 0 -121.5 -25.5t-116.5 -25.5q-40 0 -66 23.5t-26 60.5q0 35 28 60.5t68 25.5q26 0 95.5 -25.5t144.5 -25.5q0 69 -27 155t-27 117q0 37 25 61.5t63 24.5q37 0 61.5 -25 t24.5 -63q0 -42 -27.5 -117.5t-29.5 -152.5z"/>
<glyph glyph-name="ellipsis" horiz-adv-x="2048" unicode="…" d="M1561 129q0 61 42.5 103t102.5 42q61 0 104 -42t43 -103t-43 -103t-104 -42q-60 0 -102.5 42t-42.5 103zM877 129q0 60 43 102.5t104 42.5t104 -42.5t43 -102.5q0 -61 -43 -104t-104 -43t-104 43t-43 104zM195 131q0 60 42 102.5t103 42.5t104 -42.5t43 -102.5 q0 -61 -43 -104t-104 -43t-103 43t-42 104z"/>
<glyph glyph-name="perthousand" horiz-adv-x="2367" unicode="‰" d="M1020 262q0 -105 39.5 -164t109.5 -59q148 0 148 231q0 230 -148 230q-149 0 -149 -238zM883 260q0 174 77 272.5t211 98.5q132 0 207.5 -97.5t75.5 -269.5q0 -166 -76 -260t-209 -94q-130 0 -208 95t-78 255zM1720 279q0 -240 152 -240q147 0 147 231q0 230 -147 230 q-152 0 -152 -221zM1585 260q0 174 77 272.5t212 98.5q132 0 207.5 -97.5t75.5 -269.5q0 -165 -76.5 -259.5t-208.5 -94.5q-130 0 -208.5 95t-78.5 255zM1147 1315h131l-893 -1405h-131zM209 963q0 -240 151 -240q148 0 148 231q0 228 -148 228q-151 0 -151 -219zM74 944 q0 173 77 272t211 99q132 0 207.5 -98t75.5 -269q0 -166 -76 -261t-209 -95q-130 0 -208 95.5t-78 256.5z"/>
<glyph glyph-name="guilsinglleft" horiz-adv-x="555" unicode="‹" d="M270 1026h185l-195 -471l191 -473h-183l-192 469z"/>
<glyph glyph-name="guilsinglright" horiz-adv-x="557" unicode="›" d="M72 1026h186l195 -473l-195 -471h-184l192 473z"/>
<glyph glyph-name="Euro" horiz-adv-x="1059" unicode="€" d="M985 49q-136 -92 -295 -92q-214 0 -358.5 133.5t-188.5 374.5h-106l37 119h57q-1 26 -1 53q0 26 1 53h-86l27 119h73q47 239 189.5 373.5t347.5 134.5q141 0 303 -86v-197q-162 103 -297 103q-287 0 -360 -328h567l-29 -119h-555q-2 -17 -2 -57l2 -49h523l-29 -119h-479 q67 -324 376 -324q134 0 283 107v-199z"/>
<glyph glyph-name="trademark" horiz-adv-x="2048" unicode="™" d="M983 651v815h201l202 -651h5l196 651h197v-815h-125v684h-4l-205 -684h-123l-215 695h-4v-695h-125zM489 651v695h-264v120h666v-120h-266v-695h-136z"/>
<glyph glyph-name="partialdiff" horiz-adv-x="1012" unicode="∂" d="M850 796q-244 -14 -357.5 -68t-187 -176.5t-73.5 -248.5q0 -83 51 -137t119 -54q75 0 160 55q117 76 190.5 234.5t97.5 394.5zM422 1138l-135 60q70 157 168 225t192 68q76 0 137.5 -39.5t92.5 -90.5q47 -79 69.5 -187t22.5 -248q0 -288 -86.5 -512.5t-233.5 -331.5 t-289 -107q-137 0 -222.5 91t-85.5 256q0 226 153 387q197 207 649 215q-4 168 -24 256t-68 135.5t-113 47.5q-62 0 -121 -49.5t-106 -175.5z"/>
<glyph glyph-name="product" horiz-adv-x="1686" unicode="∏" d="M161 1491h1362v-1922h-191v1748h-978v-1748h-193v1922z"/>
<glyph glyph-name="summation" horiz-adv-x="1460" unicode="∑" d="M139 1491h1237v-164h-988l607 -775l-649 -822h1040v-161h-1264v187l620 788l-603 772v175z"/>
<glyph glyph-name="fraction" horiz-adv-x="276" unicode="∕" d="M520 1315h131l-893 -1405h-133z"/>
<glyph glyph-name="radical" horiz-adv-x="1124" unicode="√" d="M1055 1868l-307 -1946l-498 1028l-197 -96l-33 68l299 147l404 -825l260 1634z"/>
<glyph glyph-name="infinity" horiz-adv-x="1460" unicode="∞" d="M595 726q-100 141 -190 141q-46 0 -79.5 -37t-33.5 -103q0 -68 33 -106t80 -38q39 0 70 21q54 36 120 122zM774 724q84 -129 118 -158q53 -45 115 -45q76 0 117 59t41 146q0 94 -45 146t-110 52q-51 0 -102.5 -36t-133.5 -164zM681 843q74 121 151 174.5t172 53.5 q132 0 219.5 -93.5t87.5 -255.5t-87.5 -255.5t-219.5 -93.5q-94 0 -171 53t-152 175q-60 -84 -138 -128t-149 -44q-101 0 -171.5 78.5t-70.5 214.5t70.5 214t171.5 78q71 0 149 -44t138 -127z"/>
<glyph glyph-name="approxequal" horiz-adv-x="1343" unicode="≈" d="M1212 646v-146q-152 -127 -284 -127q-72 0 -133.5 23t-183 81t-189.5 58q-128 0 -291 -137v143q157 125 293 125q60 0 121.5 -21t187.5 -80.5t191 -59.5q130 0 288 141zM1212 1046v-146q-152 -127 -284 -127q-72 0 -133.5 23t-183 81t-189.5 58q-128 0 -291 -137v143 q157 125 293 125q60 0 121.5 -21t187.5 -80.5t191 -59.5q130 0 288 141z"/>
<glyph glyph-name="notequal" horiz-adv-x="1366" unicode="≠" d="M1227 367h-658l-160 -286l-100 57l127 229h-297v131h372l184 336h-556v133h633l159 289l101 -57l-129 -232h324v-133h-398l-187 -336h585v-131z"/>
<glyph glyph-name="lessequal" horiz-adv-x="1366" unicode="≤" d="M139 86h1088v-131h-1088v131zM1225 147l-1084 457v119l1084 457v-144l-908 -372l908 -375v-142z"/>
<glyph glyph-name="greaterequal" horiz-adv-x="1366" unicode="≥" d="M139 86h1088v-131h-1088v131zM139 1180l1086 -459v-117l-1086 -457v142l910 373l-910 374v144z"/>
<glyph glyph-name="lozenge" horiz-adv-x="1012" unicode="◊" d="M839 763l-335 652l-335 -652l335 -652zM962 763l-397 -763h-122l-397 763l397 763h122z"/>
<glyph glyph-name="foursuperior" d="M518 1030l-235 -280h235v280zM633 1333v-583h78v-111h-78v-150h-113v150h-467z" horiz-adv-x="788"/>
</font>
</defs>
</svg>
